<?xml version="1.0" standalone="no"?>
<!DOCTYPE svg PUBLIC "-//W3C//DTD SVG 1.1//EN" "http://www.w3.org/Graphics/SVG/1.1/DTD/svg11.dtd" >
<svg xmlns="http://www.w3.org/2000/svg">
<metadata>Generated by IcoMoon</metadata>
<defs>
<font id="icomoon" horiz-adv-x="1024">
<font-face units-per-em="1024" ascent="960" descent="-64" />
<missing-glyph horiz-adv-x="1024" />
<glyph unicode="&#x20;" horiz-adv-x="512" d="" />
<glyph unicode="&#xe900;" glyph-name="glasses-3d" d="M588.8 499.2c17.067 0 34.133-12.8 34.133-34.133 0-17.067-12.8-29.867-25.6-29.867h-162.133c-17.067 0-34.133 12.8-34.133 34.133 0 17.067 12.8 29.867 25.6 29.867h162.133zM682.667 866.133h-341.333c-136.533 0-247.467-110.933-247.467-247.467v-341.333c0-136.533 110.933-247.467 247.467-247.467h341.333c136.533 0 247.467 110.933 247.467 247.467v341.333c0 136.533-110.933 247.467-247.467 247.467zM430.933 98.133l17.067 72.533c12.8-4.267 21.333-4.267 34.133-8.533h8.533c25.6-4.267 51.2 0 76.8 8.533l17.067-72.533h-153.6zM307.2 512c0 17.067 12.8 29.867 25.6 29.867h4.267c0 0 0 0 4.267 0h341.333c0 0 0 0 0 0 17.067 0 29.867-12.8 29.867-34.133v-102.4c0-17.067-12.8-34.133-34.133-34.133h-337.067c-17.067 0-29.867 12.8-29.867 34.133v106.667zM384 610.133c25.6 38.4 68.267 64 115.2 64h34.133c46.933-4.267 85.333-25.6 106.667-64h-256zM640 311.467c-21.333-55.467-81.067-93.867-145.067-85.333-17.067 0-34.133 8.533-46.933 12.8 0 0-4.267 0-4.267 4.267-25.6 17.067-46.933 38.4-55.467 68.267h251.733zM861.867 277.333c0-98.133-81.067-179.2-179.2-179.2h-25.6l-25.6 102.4c38.4 25.6 64 64 76.8 110.933 42.667 8.533 72.533 46.933 72.533 93.867v106.667c0 42.667-25.6 76.8-64 89.6-25.6 76.8-98.133 128-179.2 132.267h-42.667c-89.6 0-162.133-55.467-187.733-132.267-34.133-12.8-59.733-46.933-59.733-89.6v-106.667c0-42.667 29.867-81.067 72.533-93.867 12.8-46.933 38.4-85.333 76.8-115.2l-25.6-102.4h-29.867c-98.133 0-179.2 81.067-179.2 179.2v345.6c0 98.133 81.067 179.2 179.2 179.2h341.333c98.133 0 179.2-81.067 179.2-179.2v-341.333z" />
<glyph unicode="&#xe901;" glyph-name="printer-3d" d="M853.333 866.133h-682.667c-64 0-119.467-55.467-119.467-119.467v-682.667c0-42.667 34.133-76.8 76.8-76.8h768c42.667 0 76.8 34.133 76.8 76.8v682.667c0 64-55.467 119.467-119.467 119.467zM627.2 55.467h-234.667v51.2c0 4.267 4.267 8.533 8.533 8.533h217.6c4.267 0 8.533-4.267 8.533-8.533v-51.2zM776.533 55.467h-85.333v51.2c0 42.667-34.133 76.8-76.8 76.8h-213.333c-42.667 0-76.8-34.133-76.8-76.8v-51.2h-85.333v396.8c0 4.267 4.267 8.533 8.533 8.533h93.867v-59.733c4.267-38.4 34.133-68.267 72.533-68.267h51.2v-59.733c0-17.067 17.067-29.867 29.867-29.867 17.067 0 34.133 12.8 34.133 34.133v51.2h72.533c38.4 4.267 68.267 34.133 68.267 72.533v51.2h102.4c4.267 0 8.533-4.267 8.533-8.533v-388.267zM605.867 456.533v-55.467c0-4.267-4.267-8.533-8.533-8.533h-174.933c-4.267 0-8.533 4.267-8.533 8.533v51.2h192zM904.533 64c0-4.267-4.267-8.533-8.533-8.533h-51.2v396.8c-4.267 38.4-34.133 68.267-72.533 68.267h-520.533c-38.4 0-72.533-34.133-72.533-72.533v-392.533h-51.2c-4.267 0-8.533 4.267-8.533 8.533v682.667c0 29.867 25.6 51.2 51.2 51.2h682.667c29.867 0 51.2-25.6 51.2-51.2v-682.667zM341.333 712.533c17.067 0 34.133-12.8 34.133-34.133 0-17.067-12.8-29.867-25.6-29.867h-93.867c-17.067 0-34.133 12.8-34.133 34.133 0 17.067 12.8 29.867 25.6 29.867h93.867zM746.667 704c12.8 12.8 29.867 12.8 42.667 4.267v-4.267c12.8-12.8 12.8-29.867 4.267-42.667h-4.267c-12.8-12.8-29.867-12.8-42.667-4.267v4.267c-12.8 8.533-12.8 29.867 0 42.667v0zM618.667 704c12.8 12.8 29.867 12.8 42.667 4.267v-4.267c12.8-12.8 12.8-29.867 4.267-42.667h-4.267c-12.8-12.8-29.867-12.8-42.667-4.267v4.267c-12.8 8.533-12.8 29.867 0 42.667v0z" />
<glyph unicode="&#xe902;" glyph-name="support-circle" d="M512.145 864c41.583-0.188 82.897-6.712 122.517-19.347 16.836-5.37 26.133-23.372 20.762-40.21-5.367-16.838-23.373-26.134-40.209-20.764-33.425 10.659-68.275 16.163-103.215 16.321-194.404 0-352-157.595-352-352 0-194.402 157.596-352 352-352 194.402 0 352 157.598 352 351.855-0.158 35.085-5.662 69.935-16.32 103.361-5.372 16.838 3.925 34.84 20.762 40.21s34.842-3.927 40.209-20.764c12.638-39.619 19.162-80.934 19.349-122.662 0-229.751-186.249-416-416-416s-416 186.249-416 416c0 229.751 186.249 416 416.145 416zM873.374 800.27c12.497 12.497 32.755 12.497 45.252 0 11.362-11.361 12.395-29.138 3.098-41.666l-3.098-3.589-84.821-84.821c-11.358-11.361-29.137-12.393-41.664-3.098l-3.588 3.098-54.4 54.4c-12.497 12.497-12.497 32.758 0 45.255 11.358 11.361 29.137 12.393 41.664 3.098l3.588-3.098 31.774-31.758 62.195 62.179zM388.565 597.248c52.407 0 94.891-42.484 94.891-94.891 0-41.92-18.197-65.54-60.654-95.689l-16.198-11.149c-17.487-11.934-29.309-21.329-36.945-30.532l-1.83-2.321h83.627c16.201 0 29.589-12.041 31.71-27.657l0.29-4.343c0-16.201-12.041-29.589-27.657-31.71l-4.343-0.29h-125.781c-17.673 0-32 14.327-32 32 0 49.886 20.87 78.003 68.22 111.706l23.094 15.936 11.028 8.128c17.897 13.943 23.439 23.125 23.439 35.921 0 17.062-13.83 30.891-30.891 30.891-15.639 0-28.563-11.622-30.609-26.701l-0.282-4.19c0-17.673-14.327-32-32-32s-32 14.327-32 32c0 52.407 42.484 94.891 94.891 94.891zM655.923 595.175c21.282-6.158 36.407-24.663 38.524-46.236l0.252-5.452v-127.275h3.627c16.201 0 29.589-12.041 31.71-27.657l0.29-4.343c0-16.201-12.041-29.589-27.657-31.71l-4.343-0.29h-3.627v-21.547c0-16.201-12.041-29.589-27.657-31.71l-4.343-0.29c-16.201 0-29.589 12.041-31.71 27.657l-0.29 4.343v21.547h-68.685c-17.869-0.098-34.556 8.414-44.983 22.63l-3.234 4.949c-9.971 17.165-9.997 38.357-0.026 55.612l23.889 40.785 23.778 39.966c3.921 6.528 7.804 12.975 11.644 19.315l22.379 36.586c12.723 20.352 37.406 29.79 60.463 23.119zM630.699 416.213v90.88l-2.935-4.877c-9.472-15.646-19.238-31.962-29.086-48.572l-22.037-37.431h54.059z" />
<glyph unicode="&#xe903;" glyph-name="hours24" d="M793.6 605.867c-34.133 4.267-34.133 59.733 0 64h59.733v55.467c0 17.067 12.8 29.867 25.6 29.867h4.267c17.067 0 29.867-12.8 29.867-25.6v-89.6c0-17.067-12.8-29.867-25.6-29.867h-89.6l-4.267-4.267zM388.267 597.333c51.2 0 93.867-42.667 93.867-93.867 0-42.667-17.067-64-59.733-93.867l-17.067-12.8c-17.067-12.8-29.867-21.333-38.4-29.867v0h81.067c17.067 0 29.867-12.8 29.867-25.6v-4.267c0-17.067-12.8-29.867-25.6-29.867h-128c-17.067 0-34.133 12.8-34.133 34.133 0 51.2 21.333 76.8 68.267 110.933l17.067 12.8c29.867 21.333 42.667 34.133 42.667 46.933 0 17.067-12.8 29.867-29.867 29.867s-29.867-12.8-29.867-25.6v-4.267c0-17.067-12.8-34.133-34.133-34.133-17.067 0-34.133 12.8-34.133 34.133 0 42.667 42.667 85.333 98.133 85.333zM708.267 563.2v-230.4c0-17.067-12.8-34.133-34.133-34.133-17.067 0-29.867 12.8-29.867 25.6v89.6h-76.8c-21.333 0-38.4 17.067-42.667 38.4v110.933c0 17.067 12.8 34.133 29.867 34.133s29.867-12.8 34.133-25.6v-89.6h55.467v85.333c0 17.067 12.8 34.133 34.133 34.133 17.067 0 29.867-12.8 29.867-25.6v-12.8zM512 878.933c162.133 0 307.2-85.333 384-226.133 8.533-17.067 4.267-34.133-12.8-42.667s-34.133-4.267-42.667 12.8c-64 115.2-187.733 192-324.267 192-200.533 0-366.933-162.133-366.933-366.933 0-200.533 162.133-366.933 366.933-366.933 200.533 0 366.933 162.133 366.933 366.933 0 17.067 12.8 34.133 34.133 34.133s34.133-12.8 34.133-34.133c0-238.933-192-430.933-430.933-430.933-247.467 0-439.467 192-439.467 430.933s192 430.933 430.933 430.933z" />
<glyph unicode="&#xe904;" glyph-name="artificial-intelligence" d="M896 413.867v0c21.333 4.267 34.133 17.067 34.133 34.133s-12.8 34.133-34.133 34.133h-51.2v85.333h55.467c17.067 0 29.867 17.067 29.867 29.867 0 17.067-12.8 34.133-34.133 34.133h-59.733c-17.067 68.267-72.533 123.733-140.8 140.8v64c0 17.067-17.067 29.867-29.867 29.867-17.067 0-34.133-12.8-34.133-34.133v-51.2h-85.333v55.467c0 17.067-17.067 29.867-29.867 29.867-17.067 0-34.133-12.8-34.133-34.133v-51.2h-85.333v55.467c0 17.067-17.067 29.867-29.867 29.867-21.333 0-34.133-17.067-34.133-34.133v-59.733c-72.533-21.333-123.733-72.533-145.067-145.067h-64c-17.067 0-29.867-17.067-29.867-29.867 0-17.067 12.8-34.133 34.133-34.133h51.2v-85.333h-55.467c-17.067 0-29.867-17.067-29.867-29.867 0-17.067 12.8-34.133 34.133-34.133h51.2v-85.333h-55.467c-17.067 0-29.867-17.067-29.867-29.867 0-17.067 12.8-34.133 34.133-34.133h59.733c17.067-68.267 72.533-123.733 140.8-140.8v-64c0-17.067 17.067-29.867 29.867-29.867 17.067 0 34.133 12.8 34.133 34.133v51.2h85.333v-55.467c0-17.067 17.067-29.867 29.867-29.867 17.067 0 34.133 12.8 34.133 34.133v51.2h85.333v-55.467c0-17.067 17.067-29.867 29.867-29.867 17.067 0 34.133 12.8 34.133 34.133v59.733c68.267 17.067 123.733 72.533 140.8 140.8h68.267c17.067 0 29.867 17.067 29.867 29.867 0 17.067-12.8 34.133-34.133 34.133h-51.2v85.333h51.2zM640 183.467h-256c-76.8 0-136.533 64-136.533 136.533v256c0 76.8 64 136.533 136.533 136.533h256c76.8 0 136.533-64 136.533-136.533v-256c0-76.8-59.733-136.533-136.533-136.533zM524.8 422.4c17.067 0 34.133-12.8 34.133-34.133 0-17.067-12.8-29.867-25.6-29.867h-162.133c-17.067 0-29.867 12.8-29.867 34.133 0 17.067 12.8 29.867 25.6 29.867h157.867zM473.6 580.267c12.8 0 21.333-8.533 29.867-17.067v-4.267l64-196.267c4.267-17.067-4.267-34.133-21.333-38.4s-29.867 4.267-38.4 17.067v4.267l-55.467 174.933h-4.267l-55.467-174.933c-8.533-21.333-21.333-29.867-38.4-25.6h-4.267c-17.067 4.267-25.6 21.333-21.333 34.133v4.267l64 196.267c4.267 12.8 12.8 21.333 25.6 21.333h55.467zM644.267 580.267c17.067 0 29.867-12.8 29.867-25.6v-200.533c0-17.067-12.8-34.133-34.133-34.133-17.067 0-29.867 12.8-29.867 25.6v200.533c4.267 17.067 17.067 34.133 34.133 34.133z" />
<glyph unicode="&#xe905;" glyph-name="alarm-clock-checkmark" d="M734.242 190.383c11.362 11.362 29.137 12.395 41.664 3.098l3.593-3.098 96.41-96.414c12.497-12.497 12.497-32.755 0-45.252-11.358-11.362-29.137-12.395-41.664-3.098l-3.588 3.098-96.414 96.41c-12.497 12.497-12.497 32.759 0 45.257zM244.502 190.379c12.497 12.497 32.758 12.497 45.255 0 11.361-11.358 12.393-29.137 3.098-41.664l-3.098-3.588-96.413-96.414c-12.497-12.497-32.758-12.497-45.255 0-11.361 11.362-12.393 29.137-3.098 41.664l3.098 3.593 96.413 96.41zM379.541 754.29c187.913 71.453 399.804-19.096 477.278-206.068 78.912-190.436-11.499-408.783-201.933-487.69-186.97-77.478-400.85 8.265-483.249 191.642l-4.442 10.287c-77.465 187.008 8.28 400.86 191.645 483.254l10.287 4.441 10.414 4.135zM797.692 523.721c-64.017 154.495-238.797 229.53-394.175 171.212l-10.301-4.031-9.341-4.106c-147.862-67.206-218.528-237.844-161.471-389.912l3.903-9.89c65.393-157.811 246.299-232.717 404.081-167.339s232.687 246.285 167.305 404.066zM103.267 733.669c28.348 96.355 129.44 151.486 225.795 123.139 16.954-4.988 26.656-22.776 21.667-39.731s-22.776-26.656-39.731-21.667c-62.447 18.372-127.962-17.357-146.334-79.804-4.751-16.147-5.987-33.124-3.628-49.789 2.478-17.498-9.699-33.693-27.197-36.17s-33.693 9.699-36.17 27.197c-3.641 25.714-1.733 51.91 5.597 76.826zM694.938 856.811c96.384 28.317 197.474-26.862 225.792-123.247 7.313-24.879 9.216-51.033 5.589-76.709-2.47-17.499-18.658-29.682-36.16-27.211-16.038 2.265-27.614 16.058-27.529 31.82l0.32 4.34c2.351 16.642 1.114 33.594-3.622 49.719-18.355 62.472-83.878 98.237-146.351 79.882-16.956-4.982-34.739 4.726-39.723 21.682-4.979 16.956 4.727 34.741 21.683 39.723zM561.062 470.242c12.501 12.493 32.764 12.489 45.257-0.013 11.358-11.366 12.386-29.141 3.085-41.668l-3.098-3.588-89.587-89.532c-11.349-11.345-29.103-12.386-41.626-3.119l-3.588 3.089-53.86 53.7c-12.515 12.48-12.546 32.738-0.067 45.257 11.342 11.375 29.121 12.433 41.661 3.157l3.593-3.093 31.206-31.147 67.025 66.957z" />
<glyph unicode="&#xe906;" glyph-name="alarm-clock-time" d="M148.93 812.367c47.611 46.555 116.887 63.312 180.512 43.663 16.886-5.215 26.348-23.131 21.133-40.017s-23.131-26.348-40.017-21.133c-41.198 12.723-86.055 1.872-116.798-28.189-26.433-26.041-38.448-63.37-32.166-99.94 2.992-17.418-8.703-33.964-26.121-36.955s-33.964 8.703-36.955 26.121c-9.829 57.218 8.969 115.623 50.412 156.451zM694.558 856.030c63.625 19.648 132.902 2.892 180.599-43.747 41.357-40.743 60.156-99.149 50.325-156.367-2.991-17.418-19.537-29.113-36.954-26.121-17.421 2.992-29.116 19.537-26.121 36.955 6.281 36.57-5.734 73.899-32.081 99.856-30.831 30.145-75.686 40.995-116.885 28.273-16.887-5.215-34.803 4.247-40.017 21.133s4.245 34.803 21.133 40.017zM381.15 754.895c136.618 51.2 291.123 18.134 394.871-85.562 106.799-106.746 138.778-267.315 81.028-406.835s-193.856-230.515-344.853-230.554c-146.92-0.034-279.785 86.042-340.108 219.157l-4.858 11.2c-77.49 187.127 8.258 400.994 191.627 483.414l10.287 4.443 12.006 4.736zM730.778 624.067c-88.491 88.446-221.551 114.878-337.127 66.97-154.493-64.039-229.538-238.816-171.264-394.183l3.901-9.89c47.964-115.712 160.777-191.049 285.891-191.019 125.111 0.034 237.888 75.43 285.739 191.031 47.846 115.601 21.35 248.644-67.14 337.091zM490.667 629.333c16.201 0 29.589-12.038 31.71-27.658l0.29-4.342v-181.333h138.667c16.201 0 29.589-12.041 31.71-27.657l0.29-4.343c0-16.201-12.041-29.589-27.657-31.71l-4.343-0.29h-170.667c-16.201 0-29.589 12.041-31.71 27.657l-0.29 4.343v213.333c0 17.673 14.327 32 32 32z" />
<glyph unicode="&#xe907;" glyph-name="alarm-clock-time-add" d="M247.467 669.867c145.067 145.067 384 145.067 529.067 0s145.067-384 0-529.067c-145.067-145.067-384-145.067-529.067 0s-145.067 384 0 529.067zM721.067 631.467c-119.467 115.2-311.467 110.933-426.667-8.533-123.733-119.467-123.733-315.733 0-435.2 119.467-119.467 315.733-119.467 439.467 0 119.467 119.467 119.467 307.2 8.533 430.933l-8.533 8.533-12.8 4.267zM256 844.8c12.8 12.8 34.133 8.533 42.667-4.267s8.533-29.867 0-42.667l-4.267-4.267-128-106.667c-12.8-12.8-34.133-8.533-42.667 4.267s-8.533 29.867 0 42.667l4.267 4.267 128 106.667zM725.333 840.533c8.533 12.8 29.867 12.8 42.667 8.533v-4.267l128-106.667c12.8-12.8 17.067-29.867 4.267-46.933-8.533-12.8-29.867-12.8-42.667-8.533l-4.267 4.267-128 106.667c-8.533 12.8-12.8 34.133 0 46.933zM674.133 405.333c0-17.067-12.8-29.867-29.867-29.867h-98.133v-98.133c0-17.067-12.8-34.133-34.133-34.133-17.067 0-29.867 12.8-29.867 29.867v98.133h-98.133c-17.067 0-34.133 12.8-34.133 34.133 0 17.067 12.8 29.867 29.867 29.867h98.133v98.133c0 17.067 12.8 34.133 34.133 34.133 17.067 0 29.867-12.8 29.867-29.867v-98.133h98.133c17.067 0 34.133-17.067 34.133-34.133z" />
<glyph unicode="&#xe908;" glyph-name="alarm-clock-time-off" d="M917.333 42.667l-136.533 136.533c0 0 0 0 0 4.267l-486.4 486.4-145.067 140.8v4.267c-12.8 8.533-34.133 8.533-42.667-4.267-12.8-12.8-12.8-34.133 0-46.933l119.467-119.467c-89.6-106.667-110.933-251.733-59.733-384 81.067-192 298.667-281.6 486.4-200.533 34.133 17.067 68.267 34.133 98.133 59.733l123.733-123.733c12.8-8.533 29.867-8.533 42.667 4.267s12.8 29.867 0 42.667zM631.467 119.467c-157.867-64-337.067 8.533-405.333 166.4-42.667 106.667-25.6 226.133 46.933 311.467l435.2-435.2c-25.6-17.067-51.2-29.867-76.8-42.667zM776.533 183.467v0c0 4.267 0 4.267 0 0 0 4.267 0 0 0 0zM857.6 550.4c38.4-98.133 38.4-204.8-4.267-294.4-8.533-17.067-25.6-21.333-42.667-17.067-17.067 8.533-21.333 25.6-17.067 42.667 34.133 76.8 38.4 166.4 4.267 247.467-64 153.6-238.933 230.4-392.533 170.667l-12.8-8.533-8.533-4.267c-17.067-8.533-34.133 0-42.667 17.067-4.267 12.8 0 29.867 12.8 38.4l8.533 4.267h4.267c192 81.067 409.6-8.533 490.667-196.267zM597.333 904.533c17.067 0 34.133-12.8 34.133-34.133 0-17.067-12.8-29.867-25.6-29.867h-179.2c-17.067 0-34.133 12.8-34.133 34.133 0 17.067 12.8 29.867 25.6 29.867h179.2zM832 768c12.8 12.8 34.133 12.8 46.933 0s12.8-29.867 4.267-42.667h-8.533l-98.133-98.133c-12.8-12.8-34.133-12.8-46.933 0s-12.8 29.867-4.267 42.667l4.267 4.267 102.4 93.867zM789.333 810.667c12.8 12.8 29.867 12.8 42.667 4.267v-4.267l85.333-85.333c12.8-12.8 12.8-34.133 0-46.933s-29.867-12.8-42.667-4.267v8.533l-85.333 85.333c-12.8 12.8-12.8 29.867 0 42.667z" />
<glyph unicode="&#xe909;" glyph-name="alarm-clock-timer-fast" d="M599.168 904.533c17.067 0 34.133-12.8 34.133-34.133 0-17.067-12.8-29.867-25.6-29.867h-174.933c-17.067 0-34.133 12.8-34.133 34.133 0 17.067 12.8 29.867 25.6 29.867h174.933zM249.301 669.867c145.067 145.067 384 145.067 529.067 0s145.067-384 0-529.067-384-145.067-529.067 0-145.067 384 0 529.067zM722.901 631.467c-123.733 115.2-311.467 110.933-430.933-8.533s-119.467-315.733 0-439.467c119.467-119.467 315.733-119.467 439.467 0 119.467 119.467 119.467 307.2 8.533 430.933l-17.067 17.067zM513.835 904.533c12.8 0 29.867-8.533 29.867-25.6v-132.267c0-17.067-12.8-34.133-34.133-34.133-12.8 4.267-25.6 12.8-29.867 29.867v132.267c0 17.067 12.8 29.867 34.133 29.867zM663.168 554.667c-12.8 12.8-34.133 12.8-46.933 0l-64-64c-8.533 8.533-21.333 8.533-34.133 8.533h-12.8c-51.2-4.267-89.6-42.667-89.6-93.867s42.667-93.867 93.867-93.867 93.867 42.667 93.867 93.867c0 12.8-4.267 29.867-8.533 42.667l68.267 64h4.267c8.533 12.8 8.533 34.133-4.267 42.667zM513.835 375.467c-17.067 0-29.867 12.8-29.867 34.133 0 17.067 12.8 29.867 29.867 29.867h8.533c8.533 0 12.8-4.267 17.067-8.533 0 0 0 0 0 0 4.267-4.267 8.533-12.8 8.533-21.333-4.267-21.333-17.067-34.133-34.133-34.133zM816.768 755.2c12.8 12.8 34.133 12.8 46.933 0s12.8-29.867 4.267-42.667l-89.6-89.6c-12.8-12.8-34.133-12.8-46.933 0s-12.8 29.867-4.267 42.667l89.6 89.6zM774.101 797.867c12.8 12.8 29.867 12.8 42.667 4.267l89.6-89.6c12.8-12.8 12.8-34.133 0-46.933s-29.867-12.8-42.667-4.267l-89.6 89.6c-12.8 12.8-12.8 34.133 0 46.933zM163.968 755.2c8.533 12.8 29.867 12.8 38.4 4.267l89.6-89.6c12.8-12.8 12.8-34.133 0-46.933s-29.867-12.8-42.667-4.267v4.267l-85.333 85.333c-12.8 12.8-12.8 34.133 0 46.933zM206.635 797.867c12.8 12.8 29.867 12.8 42.667 0s12.8-29.867 4.267-42.667l-89.6-89.6c-12.8-12.8-34.133-12.8-46.933 0s-12.8 29.867-4.267 42.667l4.267 4.267 89.6 85.333z" />
<glyph unicode="&#xe90a;" glyph-name="alarm-clock-timer-sleep" d="M874.667 93.867l-76.8 76.8c85.333 102.4 110.933 247.467 55.467 379.733-81.067 192-298.667 281.6-486.4 200.533l-8.533-4.267c-183.467-85.333-268.8-298.667-192-482.133 12.8-34.133 34.133-64 55.467-93.867l-81.067-81.067c-8.533-12.8-8.533-29.867 4.267-42.667s34.133-12.8 46.933 0l76.8 76.8c102.4-89.6 251.733-119.467 388.267-64 38.4 17.067 72.533 38.4 102.4 64l76.8-76.8c12.8-8.533 29.867-8.533 42.667 4.267 8.533 8.533 8.533 29.867-4.267 42.667zM631.467 119.467c-119.467-51.2-256-17.067-341.333 72.533 0 0 0 0 0 0-25.6 25.6-46.933 59.733-64 98.133l-4.267 8.533c-55.467 149.333 12.8 320 162.133 388.267l17.067 8.533c153.6 59.733 328.533-17.067 392.533-170.667 46.933-119.467 21.333-247.467-64-332.8-25.6-29.867-59.733-55.467-98.133-72.533zM149.333 810.667c46.933 51.2 115.2 64 179.2 46.933 17.067-4.267 25.6-21.333 21.333-38.4s-21.333-25.6-38.4-21.333c-42.667 12.8-85.333 0-115.2-29.867-25.6-25.6-38.4-64-34.133-102.4 4.267-17.067-8.533-34.133-25.6-34.133-21.333-4.267-34.133 8.533-38.4 25.6-8.533 59.733 12.8 115.2 51.2 153.6zM695.467 857.6c64 17.067 132.267 0 179.2-46.933 42.667-42.667 59.733-98.133 51.2-153.6-4.267-17.067-17.067-29.867-34.133-25.6s-29.867 17.067-25.6 34.133c4.267 38.4-8.533 72.533-34.133 98.133-29.867 29.867-76.8 42.667-115.2 29.867-17.067-4.267-34.133 4.267-38.4 21.333-8.533 21.333 0 38.4 17.067 42.667zM597.333 524.8c17.067 0 29.867-12.8 29.867-25.6v-4.267c0-8.533-4.267-12.8-4.267-17.067l-119.467-119.467h93.867c17.067 0 29.867-12.8 29.867-25.6v-4.267c0-17.067-12.8-29.867-25.6-29.867h-170.667c-17.067-4.267-34.133 8.533-38.4 25.6v4.267c0 8.533 4.267 17.067 8.533 21.333l115.2 115.2h-89.6c-17.067 0-29.867 12.8-29.867 25.6v4.267c0 17.067 12.8 29.867 25.6 29.867h174.933z" />
<glyph unicode="&#xe90c;" glyph-name="alarm-clock-warning" d="M734.242 190.383c11.362 11.362 29.137 12.395 41.664 3.098l3.593-3.098 96.41-96.414c12.497-12.497 12.497-32.755 0-45.252-11.358-11.362-29.137-12.395-41.664-3.098l-3.588 3.098-96.414 96.41c-12.497 12.497-12.497 32.759 0 45.257zM244.502 190.379c12.497 12.497 32.758 12.497 45.255 0 11.361-11.358 12.393-29.137 3.098-41.664l-3.098-3.588-96.413-96.414c-12.497-12.497-32.758-12.497-45.255 0-11.361 11.362-12.393 29.137-3.098 41.664l3.098 3.593 96.413 96.41zM379.541 754.29c187.913 71.453 399.804-19.096 477.278-206.068 78.912-190.436-11.499-408.783-201.933-487.69-186.97-77.478-400.85 8.265-483.249 191.642l-4.442 10.287c-77.465 187.008 8.28 400.86 191.645 483.254l10.287 4.441 10.414 4.135zM797.692 523.721c-64.017 154.495-238.797 229.53-394.175 171.212l-10.301-4.031-9.341-4.106c-147.862-67.206-218.528-237.844-161.471-389.912l3.903-9.89c65.393-157.811 246.299-232.717 404.081-167.339s232.687 246.285 167.305 404.066zM103.267 733.669c28.348 96.355 129.44 151.486 225.795 123.139 16.954-4.988 26.656-22.776 21.667-39.731s-22.776-26.656-39.731-21.667c-62.447 18.372-127.962-17.357-146.334-79.804-4.751-16.147-5.987-33.124-3.628-49.789 2.478-17.498-9.699-33.693-27.197-36.17s-33.693 9.699-36.17 27.197c-3.641 25.714-1.733 51.91 5.597 76.826zM694.938 856.811c96.384 28.317 197.474-26.862 225.792-123.247 7.313-24.879 9.216-51.033 5.589-76.709-2.47-17.499-18.658-29.682-36.16-27.211-16.038 2.265-27.614 16.058-27.529 31.82l0.32 4.34c2.351 16.642 1.114 33.594-3.622 49.719-18.355 62.472-83.878 98.237-146.351 79.882-16.956-4.982-34.739 4.726-39.723 21.682-4.979 16.956 4.727 34.741 21.683 39.723zM511.996 558.005c16.201 0 29.589-12.038 31.71-27.659l0.29-4.339v-109.803c0-17.673-14.327-32-32-32-16.201 0-29.589 12.041-31.71 27.657l-0.29 4.343v109.803c0 17.671 14.327 31.998 32 31.998zM511.996 327.561c8.836 0 16.836-3.58 22.626-9.374l2.509-2.88 2.931-2.56c4.826-4.826 8.119-11.183 9.084-18.283l0.29-4.343c0-20.676-16.764-37.44-37.44-37.44s-37.44 16.764-37.44 37.44c0 20.676 16.764 37.44 37.44 37.44zM511.996 327.561c20.676 0 37.44-16.764 37.44-37.44 0-17.673-14.327-32-32-32-8.836 0-16.836 3.58-22.626 9.374l-2.564 2.927-2.876 2.513c-4.826 4.826-8.119 11.183-9.084 18.283l-0.29 4.343c0 17.673 14.327 32 32 32z" />
<glyph unicode="&#xe90d;" glyph-name="alarm-clock" d="M734.281 190.306c11.358 11.362 29.137 12.395 41.664 3.098l3.588-3.098 96.427-96.427c12.497-12.497 12.497-32.755 0-45.252-11.358-11.362-29.137-12.395-41.664-3.098l-3.588 3.098-96.427 96.427c-12.497 12.497-12.497 32.755 0 45.252zM244.466 190.306c12.497 12.497 32.758 12.497 45.255 0 11.361-11.358 12.393-29.137 3.098-41.664l-3.098-3.588-96.427-96.427c-12.497-12.497-32.758-12.497-45.255 0-11.361 11.358-12.393 29.137-3.098 41.664l3.098 3.588 96.427 96.427zM369.15 750.161c190.491 78.913 408.851-11.527 487.763-202.021 78.908-190.479-11.558-408.847-202.022-487.72-190.477-78.908-408.844 11.558-487.717 202.018-77.481 186.991 8.295 400.922 191.692 483.285l10.285 4.438zM797.786 523.648c-64.026 154.549-238.818 229.612-394.248 171.29l-10.066-3.951-9.585-4.188c-147.883-67.179-218.574-237.882-161.491-389.975l3.904-9.89c65.351-157.811 246.275-232.764 404.099-167.386 157.811 65.353 232.764 246.276 167.386 404.1zM501.333 589.568c16.201 0 29.589-12.038 31.71-27.658l0.29-4.342v-158.464l123.328-75.209c13.833-8.435 18.995-25.681 12.672-40.119l-2.014-3.861c-8.435-13.833-25.681-18.995-40.119-12.672l-3.861 2.014-138.667 84.565c-8.166 4.979-13.602 13.295-14.989 22.596l-0.35 4.723v176.427c0 17.673 14.327 32 32 32zM149.661 812.515c47.39 47.39 115.983 64.093 179.68 46 17.001-4.829 26.868-22.525 22.039-39.526s-22.525-26.868-39.526-22.039c-41.728 11.852-86.233 1.015-116.924-29.676-26.361-26.393-38.189-63.102-33.286-100.118 2.32-17.52-10.001-33.604-27.521-35.925s-33.604 10.001-35.925 27.521c-7.471 56.408 10.771 113.019 51.464 153.763zM695.215 858.516c63.693 18.092 132.245 1.392 179.635-46 40.725-40.724 58.982-97.337 51.507-153.763-2.321-17.52-18.406-29.841-35.925-27.521s-29.841 18.405-27.52 35.925c4.902 37.022-6.929 73.719-33.314 100.104-30.711 30.709-75.174 41.541-116.898 29.69-16.998-4.829-34.697 5.038-39.526 22.039-4.826 17.001 5.039 34.697 22.042 39.526z" />
<glyph unicode="&#xe90f;" glyph-name="alarm-timer-style-2-right" d="M694.558 856.030c63.625 19.648 132.902 2.892 180.599-43.747 41.357-40.743 60.156-99.149 50.325-156.367-2.991-17.418-19.537-29.113-36.954-26.121-17.421 2.992-29.116 19.537-26.121 36.955 6.281 36.57-5.734 73.899-32.081 99.856-30.831 30.145-75.686 40.995-116.885 28.273-16.887-5.215-34.803 4.247-40.017 21.133s4.245 34.803 21.133 40.017zM148.93 812.367c47.611 46.555 116.887 63.312 180.512 43.663 16.886-5.215 26.348-23.131 21.133-40.017s-23.131-26.348-40.017-21.133c-41.198 12.723-86.055 1.872-116.798-28.189-26.433-26.041-38.448-63.37-32.166-99.94 2.992-17.418-8.703-33.964-26.121-36.955s-33.964 8.703-36.955 26.121c-9.829 57.218 8.969 115.623 50.412 156.451zM490.667 629.333c16.201 0 29.589-12.038 31.71-27.658l0.29-4.342v-181.333h138.667c16.201 0 29.589-12.041 31.71-27.657l0.29-4.343c0-16.201-12.041-29.589-27.657-31.71l-4.343-0.29h-170.667c-16.201 0-29.589 12.041-31.71 27.657l-0.29 4.343v213.333c0 17.673 14.327 32 32 32zM512 778.667c-206.186 0-373.333-167.147-373.333-373.333s167.147-373.333 373.333-373.333c206.187 0 373.333 167.147 373.333 373.333s-167.147 373.333-373.333 373.333zM512 714.667c170.842 0 309.333-138.493 309.333-309.333 0-170.842-138.492-309.333-309.333-309.333-170.84 0-309.333 138.492-309.333 309.333 0 170.84 138.493 309.333 309.333 309.333z" />
<glyph unicode="&#xe910;" glyph-name="alarm-timer-2" d="M694.558 856.030c63.625 19.648 132.902 2.892 180.599-43.747 41.357-40.743 60.156-99.149 50.325-156.367-2.991-17.418-19.537-29.113-36.954-26.121-17.421 2.992-29.116 19.537-26.121 36.955 6.281 36.57-5.734 73.899-32.081 99.856-30.831 30.145-75.686 40.995-116.885 28.273-16.887-5.215-34.803 4.247-40.017 21.133s4.245 34.803 21.133 40.017zM148.93 812.367c47.611 46.555 116.887 63.312 180.512 43.663 16.886-5.215 26.348-23.131 21.133-40.017s-23.131-26.348-40.017-21.133c-41.198 12.723-86.055 1.872-116.798-28.189-26.433-26.041-38.448-63.37-32.166-99.94 2.992-17.418-8.703-33.964-26.121-36.955s-33.964 8.703-36.955 26.121c-9.829 57.218 8.969 115.623 50.412 156.451zM533.333 629.333c16.201 0 29.589-12.038 31.71-27.658l0.29-4.342v-213.333c0-16.201-12.041-29.589-27.657-31.71l-4.343-0.29h-170.667c-17.673 0-32 14.327-32 32 0 16.201 12.038 29.589 27.658 31.71l4.342 0.29h138.667v181.333c0 16.201 12.041 29.589 27.657 31.708l4.343 0.292zM512 778.667c-206.186 0-373.333-167.147-373.333-373.333s167.147-373.333 373.333-373.333c206.187 0 373.333 167.147 373.333 373.333s-167.147 373.333-373.333 373.333zM512 714.667c170.842 0 309.333-138.493 309.333-309.333 0-170.842-138.492-309.333-309.333-309.333-170.84 0-309.333 138.492-309.333 309.333 0 170.84 138.493 309.333 309.333 309.333z" />
<glyph unicode="&#xe911;" glyph-name="analytics-chart-add" d="M145.067 648.533c89.6 162.133 277.333 247.467 456.533 204.8 17.067-4.267 29.867-21.333 25.6-38.4s-21.333-29.867-38.4-25.6c-153.6 38.4-311.467-34.133-388.267-170.667s-51.2-311.467 59.733-422.4 281.6-136.533 422.4-59.733c136.533 76.8 209.067 234.667 174.933 388.267-4.267 17.067 8.533 34.133 25.6 38.4s34.133-8.533 38.4-25.6c42.667-183.467-42.667-366.933-204.8-456.533s-371.2-59.733-499.2 72.533c-132.267 128-162.133 332.8-72.533 494.933zM725.333 516.267c-4.267 25.6-25.6 46.933-51.2 46.933h-76.8v76.8c0 29.867-25.6 51.2-51.2 51.2h-85.333c-29.867 0-51.2-25.6-51.2-51.2v-162.133h-81.067c-25.6-4.267-46.933-25.6-46.933-51.2v-132.267c4.267-25.6 25.6-46.933 51.2-46.933h345.6c25.6 4.267 46.933 25.6 46.933 51.2v217.6zM405.333 311.467h-64v106.667h64v-106.667zM533.333 311.467h-64v315.733h64v-315.733zM661.333 311.467h-64v192h64v-192zM853.333 755.2c17.067 0 34.133-12.8 34.133-34.133 0-17.067-12.8-29.867-25.6-29.867h-132.267c-17.067 0-34.133 12.8-34.133 34.133 0 17.067 12.8 29.867 25.6 29.867h132.267zM789.333 823.467c17.067 0 29.867-12.8 29.867-25.6v-132.267c0-17.067-12.8-34.133-34.133-34.133-17.067 0-29.867 12.8-29.867 25.6v132.267c0 17.067 17.067 34.133 34.133 34.133z" />
<glyph unicode="&#xe912;" glyph-name="android-2" d="M341.333 29.867h341.333c136.533 0 247.467 110.933 247.467 247.467v341.333c0 136.533-110.933 247.467-247.467 247.467h-341.333c-136.533 0-247.467-110.933-247.467-247.467v-341.333c0-136.533 110.933-247.467 247.467-247.467zM341.333 98.133c-98.133 0-179.2 81.067-179.2 179.2v341.333c0 98.133 81.067 179.2 179.2 179.2h341.333c98.133 0 179.2-81.067 179.2-179.2v-341.333c0-98.133-81.067-179.2-179.2-179.2h-341.333zM797.867 324.267l-4.267 25.6c-12.8 76.8-59.733 145.067-123.733 187.733l38.4 64c8.533 17.067 4.267 34.133-8.533 42.667-17.067 8.533-34.133 4.267-42.667-8.533l-42.667-68.267c-29.867 12.8-59.733 17.067-89.6 17.067h-12.8c-34.133 0-72.533-8.533-102.4-17.067l-42.667 68.267c-8.533 12.8-25.6 21.333-42.667 8.533-12.8-8.533-21.333-25.6-8.533-42.667l38.4-64c-64-42.667-106.667-106.667-123.733-187.733l-4.267-25.6v-4.267c0-42.667 34.133-76.8 76.8-76.8h426.667c42.667 0 76.8 34.133 76.8 76.8l-8.533 4.267zM725.333 311.467h-430.933c-4.267 0-8.533 4.267-8.533 8.533v0l4.267 21.333c12.8 72.533 59.733 128 119.467 162.133 25.6 12.8 59.733 21.333 89.6 21.333h25.6c29.867 0 55.467-8.533 81.067-21.333 4.267 0 4.267-4.267 8.533-4.267 59.733-29.867 102.4-89.6 110.933-157.867l4.267-21.333c4.267-8.533 0-8.533-4.267-8.533zM576 430.933c12.8 12.8 34.133 12.8 46.933 0s12.8-34.133 0-46.933c-12.8-12.8-34.133-12.8-46.933 0s-12.8 29.867 0 46.933v0zM409.6 430.933c12.8 12.8 34.133 12.8 46.933 0s12.8-34.133 0-46.933c-12.8-12.8-34.133-12.8-46.933 0s-12.8 29.867 0 46.933v0z" />
<glyph unicode="&#xe913;" glyph-name="android" d="M776.533 866.133h-529.067c-81.067 0-149.333-68.267-149.333-149.333v-533.333c0-81.067 68.267-149.333 149.333-149.333h533.333c81.067 0 149.333 68.267 149.333 149.333v529.067c0 85.333-68.267 153.6-153.6 153.6zM247.467 797.867h533.333c46.933 0 85.333-38.4 85.333-85.333v-533.333c0-46.933-38.4-85.333-85.333-85.333h-533.333c-46.933 0-85.333 38.4-85.333 85.333v533.333c0 46.933 38.4 85.333 85.333 85.333zM627.2 669.867l12.8 12.8c8.533 12.8 8.533 29.867-4.267 42.667s-34.133 12.8-46.933 0l-21.333-21.333c-17.067 4.267-34.133 8.533-55.467 8.533s-38.4-4.267-55.467-8.533l-25.6 21.333-4.267 4.267c-12.8 8.533-29.867 8.533-42.667-4.267s-12.8-34.133 0-46.933l8.533-8.533c-42.667-34.133-72.533-85.333-72.533-145.067v-234.667c12.8-29.867 38.4-55.467 68.267-55.467h17.067v-46.933c0-17.067 17.067-29.867 29.867-29.867 17.067 0 34.133 17.067 34.133 34.133v42.667h85.333v-46.933c0-17.067 17.067-29.867 29.867-29.867 17.067 0 34.133 12.8 34.133 34.133v42.667h17.067c34.133 0 59.733 25.6 59.733 59.733v230.4c0 59.733-25.6 110.933-68.267 145.067zM512 648.533c55.467 0 102.4-38.4 115.2-89.6h-230.4c12.8 51.2 59.733 89.6 115.2 89.6zM631.467 298.667h-238.933v192h243.2v-192zM264.533 558.933c17.067 0 29.867-12.8 29.867-25.6v-162.133c0-17.067-12.8-34.133-34.133-34.133-17.067 0-29.867 12.8-29.867 25.6v162.133c4.267 17.067 17.067 34.133 34.133 34.133zM759.467 558.933c17.067 0 29.867-12.8 29.867-25.6v-162.133c0-17.067-12.8-34.133-34.133-34.133-17.067 0-29.867 12.8-29.867 25.6v162.133c0 17.067 12.8 34.133 34.133 34.133z" />
<glyph unicode="&#xe914;" glyph-name="apple-square" d="M600.555 624.021c-19.465 1.537-37.483-1.733-59.086-9.193l-32.882-12.204-3.706 0.85-18.793 7.651c-16.137 6.563-27.59 10.255-40.722 12.145l-12.101 1.016-4.345 0.069-1.954-0.184 2.743 0.152c-52.286-1.793-99.691-31.203-124.52-77.253-43.664-75.826-23.275-191.409 31.715-270.914 36.772-52.681 60.328-74.769 101.78-73.519 12.71 0.546 22.372 2.701 33.906 7.010l12.708 5.188c12.954 5.517 19.066 7.159 29.69 7.159 8.106 0 13.362-1.062 21.814-4.403l9.374-3.959c17.272-7.407 29.778-10.658 47.412-10.231 38.818 0.943 63.441 22.221 93.466 65.434l4.322 6.289c12.736 18.675 23.189 38.665 31.215 59.661l5.265 15.027c5.047 14.46-0.879 30.221-13.641 37.931l-10.044 4.958c-21.423 11.575-35.686 33.306-37.585 57.796l-0.218 5.611v-0.661c0.235 23.716 11.849 45.851 31.147 59.52l5.572 3.622c15.164 9.919 19.072 30.434 8.623 45.234-25.634 36.305-66.743 58.569-111.155 60.199zM604.531 559.512c10.035-1.278 19.486-4.305 28.002-8.855l5.76-3.415-3.021-3.335c-20.838-24.486-32.58-55.359-32.905-87.823l0.337-9.354 0.99-9.036c5.082-35.808 23.595-67.424 51.085-88.899l3.354-2.428-6.131-12.723c-4.006-7.633-8.508-15.138-13.436-22.366l-4.164-6.059c-18.978-27.315-30.831-37.559-42.368-37.837-5.38-0.132-9.233 0.563-15.462 2.948l-8.905 3.729c-19.265 8.316-32.586 11.934-52.681 11.934-17.899 0-30.528-2.705-46.481-8.892l-11.813-4.89c-9.533-4.041-14.086-5.35-20.345-5.619-9.893-0.294-23.271 12.25-46.887 46.080-42.234 61.065-58.18 151.463-28.372 203.244l3.553 6.003c13.798 21.329 35.895 35.068 60.495 37.931l5.67 0.447 7.498-0.604c3.098-0.491 7.398-1.708 13.38-3.872l32.308-12.769 4.913-1.572 6.646-1.454 9.434-1.201c9.594-0.163 16.497 0.963 23.812 3.142l7.553 2.529 18.381 7.059c17.903 6.81 30.106 9.52 42.172 8.582l7.629-0.627zM778.18 864h-532.361c-82.743 0-149.82-67.077-149.82-149.82v-532.361c0-82.743 67.077-149.82 149.82-149.82h532.361c82.743 0 149.82 67.076 149.82 149.82v532.361c0 82.743-67.076 149.82-149.82 149.82zM245.82 800h532.361c47.398 0 85.82-38.423 85.82-85.82v-532.361c0-47.398-38.421-85.82-85.82-85.82h-532.361c-47.397 0-85.82 38.421-85.82 85.82v532.361c0 47.397 38.423 85.82 85.82 85.82zM536.137 724.582c11.367 13.533 31.551 15.288 45.085 3.921 12.301-10.334 14.869-27.955 6.694-41.241l-2.773-3.844-26.88-32c-11.368-13.533-31.553-15.288-45.085-3.921-12.303 10.334-14.871 27.955-6.697 41.241l2.776 3.844 26.88 32z" />
<glyph unicode="&#xe915;" glyph-name="sort-1" d="M664.435 769.294c11.358 11.361 29.137 12.394 41.664 3.098l3.588-3.098 123.605-123.605c11.362-11.362 12.395-29.142 3.098-41.67l-3.102-3.589-123.605-123.563c-12.497-12.495-32.759-12.491-45.252 0.008-11.358 11.363-12.39 29.14-3.093 41.667l3.102 3.588 100.915 100.974-100.919 100.935c-11.362 11.361-12.395 29.138-3.098 41.666l3.098 3.589zM810.667 654.933c17.673 0 32-14.327 32-32 0-16.201-12.041-29.589-27.657-31.708l-4.343-0.292h-597.333c-17.673 0-32 14.327-32 32 0 16.201 12.039 29.589 27.658 31.708l4.342 0.292h597.333zM314.315 419.133c12.499 12.495 32.76 12.491 45.255-0.008 11.359-11.363 12.389-29.14 3.091-41.667l-3.099-3.588-100.96-100.931 100.963-100.979c11.361-11.358 12.393-29.137 3.098-41.664l-3.098-3.588c-11.361-11.362-29.138-12.395-41.666-3.098l-3.589 3.098-123.605 123.605c-11.362 11.362-12.394 29.141-3.095 41.668l3.099 3.588 123.605 123.564zM810.667 305.067c17.673 0 32-14.327 32-32 0-16.201-12.041-29.589-27.657-31.71l-4.343-0.29h-597.333c-17.673 0-32 14.327-32 32 0 16.201 12.039 29.589 27.658 31.71l4.342 0.29h597.333z" />
<glyph unicode="&#xe916;" glyph-name="sort-2" d="M276.039 769.294c11.361 11.361 29.138 12.394 41.666 3.098l3.589-3.098 128-128c12.497-12.497 12.497-32.758 0-45.255-11.361-11.361-29.138-12.393-41.666-3.098l-3.589 3.098-105.373 105.358-105.373-105.358c-11.361-11.361-29.138-12.393-41.666-3.098l-3.589 3.098c-11.361 11.361-12.394 29.138-3.098 41.666l3.098 3.589 128 128zM298.667 778.667c16.201 0 29.589-12.039 31.708-27.658l0.292-4.342v-597.333c0-17.673-14.327-32-32-32-16.201 0-29.589 12.041-31.708 27.657l-0.292 4.343v597.333c0 17.673 14.327 32 32 32zM574.706 299.959c11.361 11.362 29.138 12.395 41.665 3.098l3.588-3.098 105.374-105.357 105.374 105.357c11.358 11.362 29.137 12.395 41.664 3.098l3.588-3.098c11.362-11.358 12.395-29.137 3.098-41.664l-3.098-3.588-128-128c-11.358-11.362-29.137-12.395-41.664-3.098l-3.588 3.098-128.001 128c-12.497 12.497-12.497 32.755 0 45.252zM725.333 778.667c16.201 0 29.589-12.039 31.71-27.658l0.29-4.342v-597.333c0-17.673-14.327-32-32-32-16.201 0-29.589 12.041-31.71 27.657l-0.29 4.343v597.333c0 17.673 14.327 32 32 32z" />
<glyph unicode="&#xe917;" glyph-name="arrow-up-1" d="M489.374 555.961c11.358 11.361 29.137 12.393 41.664 3.098l3.588-3.098 170.667-170.668c12.497-12.497 12.497-32.755 0-45.252-11.358-11.362-29.137-12.395-41.664-3.098l-3.588 3.098-148.041 148.023-148.039-148.023c-11.361-11.362-29.138-12.395-41.666-3.098l-3.589 3.098c-11.361 11.358-12.393 29.137-3.098 41.664l3.098 3.588 170.668 170.668z" />
<glyph unicode="&#xe918;" glyph-name="arrow-down-1" d="M318.706 555.961c11.361 11.361 29.138 12.393 41.666 3.098l3.589-3.098 148.039-148.025 148.041 148.025c11.358 11.361 29.137 12.393 41.664 3.098l3.588-3.098c11.362-11.361 12.395-29.138 3.098-41.665l-3.098-3.588-170.667-170.667c-11.358-11.362-29.137-12.395-41.664-3.098l-3.588 3.098-170.668 170.667c-12.497 12.497-12.497 32.757 0 45.254z" />
<glyph unicode="&#xe919;" glyph-name="arrow-left-1" d="M574.707 641.294c12.497 12.497 32.755 12.497 45.252 0 11.362-11.361 12.395-29.138 3.098-41.666l-3.098-3.589-148.023-148.039 148.023-148.041c11.362-11.358 12.395-29.137 3.098-41.664l-3.098-3.588c-11.358-11.362-29.137-12.395-41.664-3.098l-3.588 3.098-170.668 170.667c-11.361 11.358-12.393 29.137-3.098 41.664l3.098 3.588 170.668 170.668z" />
<glyph unicode="&#xe91a;" glyph-name="arrow-right-1" d="M404.039 641.294c11.361 11.361 29.138 12.393 41.665 3.098l3.588-3.098 170.667-170.668c11.362-11.358 12.395-29.137 3.098-41.664l-3.098-3.588-170.667-170.667c-12.497-12.497-32.757-12.497-45.254 0-11.361 11.358-12.393 29.137-3.098 41.664l3.098 3.588 148.025 148.041-148.025 148.039c-11.361 11.361-12.393 29.138-3.098 41.666l3.098 3.589z" />
<glyph unicode="&#xe91b;" glyph-name="arrow-top-2" d="M512 778.667c16.201 0 29.589-12.039 31.708-27.658l0.292-4.342v-597.333c0-17.673-14.327-32-32-32-16.201 0-29.589 12.041-31.708 27.657l-0.292 4.343v597.333c0 17.673 14.327 32 32 32zM489.373 769.337c11.361 11.361 29.138 12.394 41.666 3.098l3.589-3.098 213.375-213.376c12.497-12.497 12.497-32.758 0-45.255-11.358-11.361-29.137-12.393-41.664-3.098l-3.589 3.098-190.749 190.734-190.749-190.734c-11.361-11.361-29.138-12.393-41.666-3.098l-3.589 3.098c-11.361 11.361-12.394 29.138-3.098 41.666l3.098 3.589 213.376 213.376z" />
<glyph unicode="&#xe91c;" glyph-name="arrow-down-2" d="M512 778.667c16.201 0 29.589-12.039 31.708-27.658l0.292-4.342v-597.333c0-17.673-14.327-32-32-32-16.201 0-29.589 12.041-31.708 27.657l-0.292 4.343v597.333c0 17.673 14.327 32 32 32zM275.997 385.337c11.361 11.361 29.138 12.393 41.666 3.098l3.589-3.098 190.749-190.734 190.749 190.734c11.361 11.361 29.138 12.393 41.665 3.098l3.588-3.098c11.362-11.361 12.395-29.138 3.098-41.666l-3.098-3.589-213.375-213.375c-11.361-11.362-29.138-12.395-41.666-3.098l-3.589 3.098-213.376 213.375c-12.497 12.497-12.497 32.758 0 45.255z" />
<glyph unicode="&#xe91d;" glyph-name="arrow-left-2" d="M810.667 480c17.673 0 32-14.327 32-32 0-16.201-12.041-29.589-27.657-31.708l-4.343-0.292h-597.333c-17.673 0-32 14.327-32 32 0 16.201 12.039 29.589 27.658 31.708l4.342 0.292h597.333zM404.039 683.961c12.497 12.497 32.758 12.497 45.255 0 11.361-11.361 12.393-29.138 3.098-41.666l-3.098-3.589-213.333-213.333c-12.497-12.497-32.758-12.497-45.255 0-11.361 11.361-12.394 29.138-3.098 41.666l3.098 3.589 213.333 213.333zM190.706 470.627c11.361 11.361 29.138 12.393 41.666 3.098l3.589-3.098 213.333-213.333c12.497-12.497 12.497-32.756 0-45.254-11.361-11.362-29.138-12.395-41.666-3.098l-3.589 3.098-213.333 213.332c-12.497 12.497-12.497 32.758 0 45.255z" />
<glyph unicode="&#xe91e;" glyph-name="arrow-right-2" d="M810.667 480c17.673 0 32-14.327 32-32 0-16.201-12.041-29.589-27.657-31.708l-4.343-0.292h-597.333c-17.673 0-32 14.327-32 32 0 16.201 12.039 29.589 27.658 31.708l4.342 0.292h597.333zM788.041 470.627c12.497 12.497 32.755 12.497 45.252 0 11.362-11.361 12.395-29.138 3.098-41.666l-3.098-3.589-213.332-213.332c-12.497-12.497-32.758-12.497-45.255 0-11.361 11.358-12.393 29.137-3.098 41.664l3.098 3.589 213.335 213.333zM574.706 683.961c11.361 11.361 29.138 12.394 41.666 3.098l3.589-3.098 213.332-213.333c12.497-12.497 12.497-32.758 0-45.255-11.358-11.361-29.137-12.393-41.664-3.098l-3.588 3.098-213.335 213.333c-12.497 12.497-12.497 32.758 0 45.255z" />
<glyph unicode="&#xe91f;" glyph-name="arrow-top-3" d="M512 864l-11.786-0.167c-225.046-6.512-404.214-190.631-404.214-415.833l0.167-11.786c6.512-225.044 190.631-404.214 415.833-404.214l11.786 0.166c225.044 6.511 404.214 190.63 404.214 415.834l-0.166 11.786c-6.511 225.046-190.63 404.214-415.834 404.214zM501.603 799.85l10.397 0.15c190.554 0 346.351-151.607 351.851-341.603l0.154-10.86c0-190.091-151.612-345.888-341.607-351.388l-10.86-0.154c-190.091 0-345.887 151.612-351.387 341.607l-0.154 10.86c0 190.091 151.61 345.887 341.606 351.387zM512 650.667c16.201 0 29.589-12.038 31.708-27.658l0.292-4.342v-341.333c0-17.673-14.327-32-32-32-16.201 0-29.589 12.041-31.708 27.657l-0.292 4.343v341.333c0 17.673 14.327 32 32 32zM489.373 641.294c11.361 11.361 29.138 12.393 41.666 3.098l3.589-3.098 127.999-128c12.497-12.497 12.497-32.758 0-45.255-11.358-11.361-29.137-12.393-41.664-3.098l-3.588 3.098-105.374 105.358-105.373-105.358c-11.361-11.361-29.138-12.393-41.666-3.098l-3.589 3.098c-11.361 11.361-12.393 29.138-3.098 41.666l3.098 3.589 128 128z" />
<glyph unicode="&#xe920;" glyph-name="arrow-down-3" d="M512 864l-11.786-0.167c-225.046-6.512-404.214-190.631-404.214-415.833l0.167-11.786c6.512-225.044 190.631-404.214 415.833-404.214l11.786 0.166c225.044 6.511 404.214 190.63 404.214 415.834l-0.166 11.786c-6.511 225.046-190.63 404.214-415.834 404.214zM501.603 799.85l10.397 0.15c190.554 0 346.351-151.607 351.851-341.603l0.154-10.86c0-190.091-151.612-345.888-341.607-351.388l-10.86-0.154c-190.091 0-345.887 151.612-351.387 341.607l-0.154 10.86c0 190.091 151.61 345.887 341.606 351.387zM512 650.667c16.201 0 29.589-12.038 31.708-27.658l0.292-4.342v-341.333c0-17.673-14.327-32-32-32-16.201 0-29.589 12.041-31.708 27.657l-0.292 4.343v341.333c0 17.673 14.327 32 32 32zM361.373 427.961c11.361 11.361 29.138 12.393 41.666 3.098l3.589-3.098 105.373-105.358 105.374 105.358c11.358 11.361 29.137 12.393 41.664 3.098l3.588-3.098c11.362-11.361 12.395-29.138 3.098-41.665l-3.098-3.588-127.999-128c-11.361-11.362-29.138-12.395-41.666-3.098l-3.589 3.098-128 128c-12.497 12.497-12.497 32.757 0 45.254z" />
<glyph unicode="&#xe921;" glyph-name="arrow-left-3" d="M512 864l-11.786-0.167c-225.046-6.512-404.214-190.631-404.214-415.833l0.167-11.786c6.512-225.044 190.631-404.214 415.833-404.214l11.786 0.166c225.044 6.511 404.214 190.63 404.214 415.834l-0.166 11.786c-6.511 225.046-190.63 404.214-415.834 404.214zM501.603 799.85l10.397 0.15c190.554 0 346.351-151.607 351.851-341.603l0.154-10.86c0-190.091-151.612-345.888-341.607-351.388l-10.86-0.154c-190.091 0-345.887 151.612-351.387 341.607l-0.154 10.86c0 190.091 151.61 345.887 341.606 351.387zM682.667 480c17.673 0 32-14.327 32-32 0-16.201-12.041-29.589-27.657-31.708l-4.343-0.292h-341.333c-17.673 0-32 14.327-32 32 0 16.201 12.038 29.589 27.658 31.708l4.342 0.292h341.333zM446.706 598.627c12.497 12.497 32.758 12.497 45.255 0 11.361-11.361 12.393-29.138 3.098-41.666l-3.098-3.589-105.358-105.373 105.358-105.374c11.361-11.358 12.393-29.137 3.098-41.664l-3.098-3.588c-11.361-11.362-29.138-12.395-41.666-3.098l-3.589 3.098-128 127.999c-11.361 11.361-12.393 29.138-3.098 41.666l3.098 3.589 128 128z" />
<glyph unicode="&#xe922;" glyph-name="arrow-right-3" d="M512 864l-11.786-0.167c-225.046-6.512-404.214-190.631-404.214-415.833l0.167-11.786c6.512-225.044 190.631-404.214 415.833-404.214l11.786 0.166c225.044 6.511 404.214 190.63 404.214 415.834l-0.166 11.786c-6.511 225.046-190.63 404.214-415.834 404.214zM501.603 799.85l10.397 0.15c190.554 0 346.351-151.607 351.851-341.603l0.154-10.86c0-190.091-151.612-345.888-341.607-351.388l-10.86-0.154c-190.091 0-345.887 151.612-351.387 341.607l-0.154 10.86c0 190.091 151.61 345.887 341.606 351.387zM682.667 480c17.673 0 32-14.327 32-32 0-16.201-12.041-29.589-27.657-31.708l-4.343-0.292h-341.333c-17.673 0-32 14.327-32 32 0 16.201 12.038 29.589 27.658 31.708l4.342 0.292h341.333zM532.039 598.627c11.361 11.361 29.138 12.393 41.665 3.098l3.588-3.098 128-128c11.362-11.361 12.395-29.138 3.098-41.666l-3.098-3.589-128-127.999c-12.497-12.497-32.757-12.497-45.254 0-11.361 11.358-12.393 29.137-3.098 41.664l3.098 3.588 105.358 105.374-105.358 105.373c-11.361 11.361-12.393 29.138-3.098 41.666l3.098 3.589z" />
<glyph unicode="&#xe923;" glyph-name="arrow-top-left" d="M217.841 742.159l-9.005-9.29c-153.755-163.846-149.92-420.102 9.005-579.027l9.29-9.003c163.846-153.758 420.102-149.922 579.027 9.003l9.003 9.293c153.758 163.844 149.922 420.099-9.003 579.024l-9.66 9.356c-163.477 153.404-419.732 149.569-578.657-9.356zM752.706 704.845l8.559-8.298c134.11-134.117 137.357-350.953 7.578-489.253l-8.294-8.559c-134.118-134.11-350.956-137.357-489.254-7.578l-8.559 8.294c-134.111 134.118-137.356 350.956-7.58 489.254l8.298 8.559c134.117 134.111 350.953 137.356 489.253 7.58zM361.372 598.628c11.361 11.361 29.138 12.393 41.666 3.098l3.589-3.098 256.001-255.999c12.497-12.497 12.497-32.759 0-45.257-11.362-11.358-29.141-12.395-41.668-3.098l-3.588 3.098-255.999 256.001c-12.497 12.497-12.497 32.758 0 45.255zM576.002 608c17.673 0 32-14.327 32-32 0-16.201-12.041-29.589-27.661-31.708l-4.339-0.292-160.013 0.011 0.011-160.013c0-16.196-12.038-29.585-27.658-31.706l-4.342-0.294c-16.201 0-29.589 12.041-31.708 27.661l-0.292 4.339v192.002c0 16.201 12.038 29.589 27.658 31.708l4.342 0.292h192.002z" />
<glyph unicode="&#xe924;" glyph-name="arrow-top-right" d="M217.841 742.159l-9.005-9.29c-153.755-163.846-149.92-420.102 9.005-579.027l9.29-9.003c163.846-153.758 420.102-149.922 579.027 9.003l9.003 9.293c153.758 163.844 149.922 420.099-9.003 579.024l-9.66 9.356c-163.477 153.404-419.732 149.569-578.657-9.356zM752.706 704.845l8.559-8.298c134.11-134.117 137.357-350.953 7.578-489.253l-8.294-8.559c-134.118-134.11-350.956-137.357-489.254-7.578l-8.559 8.294c-134.111 134.118-137.356 350.956-7.58 489.254l8.298 8.559c134.117 134.111 350.953 137.356 489.253 7.58zM617.371 598.628c12.497 12.497 32.759 12.497 45.257 0 11.358-11.361 12.395-29.138 3.098-41.666l-3.098-3.589-256.001-256.001c-12.497-12.497-32.758-12.497-45.255 0-11.361 11.362-12.393 29.141-3.098 41.668l3.098 3.588 255.999 255.999zM639.997 608c16.201 0 29.589-12.038 31.71-27.658l0.294-4.342v-192.002c0-17.673-14.327-32-32.004-32-16.196 0-29.585 12.041-31.706 27.661l-0.29 4.339-0.013 160.013-159.989-0.011c-16.201 0-29.589 12.038-31.708 27.658l-0.292 4.342c0 16.201 12.038 29.589 27.658 31.708l4.342 0.292h191.998z" />
<glyph unicode="&#xe925;" glyph-name="arrow-down-left" d="M217.841 742.159l-9.005-9.29c-153.755-163.846-149.92-420.102 9.005-579.027l9.29-9.003c163.846-153.758 420.102-149.922 579.027 9.003l9.003 9.293c153.758 163.844 149.922 420.099-9.003 579.024l-9.66 9.356c-163.477 153.404-419.732 149.569-578.657-9.356zM752.706 704.845l8.559-8.298c134.11-134.117 137.357-350.953 7.578-489.253l-8.294-8.559c-134.118-134.11-350.956-137.357-489.254-7.578l-8.559 8.294c-134.111 134.118-137.356 350.956-7.58 489.254l8.298 8.559c134.117 134.111 350.953 137.356 489.253 7.58zM617.371 598.628c12.497 12.497 32.759 12.497 45.257 0 11.358-11.361 12.395-29.138 3.098-41.666l-3.098-3.589-256.001-256.001c-12.497-12.497-32.758-12.497-45.255 0-11.361 11.362-12.393 29.141-3.098 41.668l3.098 3.588 255.999 255.999zM384 544c16.201 0 29.589-12.038 31.708-27.658l0.292-4.342-0.011-159.989 160.013-0.013c16.196 0 29.585-12.036 31.706-27.657l0.294-4.339c0-16.201-12.041-29.589-27.661-31.71l-4.339-0.294h-192.002c-16.201 0-29.589 12.041-31.708 27.661l-0.292 4.343v191.998c0 17.673 14.327 32 32 32z" />
<glyph unicode="&#xe926;" glyph-name="arrow-down-right" d="M217.841 742.159l-9.005-9.29c-153.755-163.846-149.92-420.102 9.005-579.027l9.29-9.003c163.846-153.758 420.102-149.922 579.027 9.003l9.003 9.293c153.758 163.844 149.922 420.099-9.003 579.024l-9.66 9.356c-163.477 153.404-419.732 149.569-578.657-9.356zM752.706 704.845l8.559-8.298c134.11-134.117 137.357-350.953 7.578-489.253l-8.294-8.559c-134.118-134.11-350.956-137.357-489.254-7.578l-8.559 8.294c-134.111 134.118-137.356 350.956-7.58 489.254l8.298 8.559c134.117 134.111 350.953 137.356 489.253 7.58zM361.372 598.628c11.361 11.361 29.138 12.393 41.666 3.098l3.589-3.098 256.001-255.999c12.497-12.497 12.497-32.759 0-45.257-11.362-11.358-29.141-12.395-41.668-3.098l-3.588 3.098-255.999 256.001c-12.497 12.497-12.497 32.758 0 45.255zM639.997 544c16.201 0 29.589-12.038 31.71-27.658l0.294-4.342v-191.998c0-16.201-12.041-29.589-27.661-31.71l-4.343-0.294h-191.998c-17.673 0-32 14.327-32 32.004 0 16.196 12.038 29.585 27.658 31.706l4.342 0.29 159.989 0.013 0.013 159.989c0 16.201 12.036 29.589 27.657 31.708l4.339 0.292z" />
<glyph unicode="&#xe927;" glyph-name="arrow-top-4" d="M640.223 393.88c11.363 11.359 12.399 29.136 3.107 41.665l-3.098 3.59-105.6 105.642c-11.362 11.366-29.145 12.399-41.675 3.102l-3.589-3.102-105.599-105.642c-12.497-12.499-12.493-32.76 0.009-45.255 11.362-11.358 29.141-12.387 41.664-3.090l3.588 3.099 82.97 82.953 82.968-82.953c11.358-11.363 29.136-12.399 41.665-3.107l3.59 3.098zM928 448.399c-0.115 229.749-186.457 415.908-416.207 415.793-225.858-0.111-409.585-180.194-415.639-404.564l-0.154-11.628c0-225.856 179.989-409.674 404.818-415.837l11.668-0.16c228.187 3.472 412.265 187.734 415.513 416.396zM864.003 448.838c-2.753-193.581-158.912-349.897-352.003-352.838-190.805 0-346.15 151.813-351.838 341.239l-0.162 10.761 0.158 10.778c5.487 185.856 155.055 335.573 340.905 341.248l10.761 0.166c194.404 0.098 352.079-157.419 352.179-351.354z" />
<glyph unicode="&#xe928;" glyph-name="arrow-down-4" d="M640.223 502.12c11.363-11.359 12.399-29.136 3.107-41.665l-3.098-3.59-105.6-105.642c-11.362-11.366-29.145-12.399-41.675-3.102l-3.589 3.102-105.599 105.642c-12.497 12.499-12.493 32.76 0.009 45.255 11.362 11.358 29.141 12.387 41.664 3.090l3.588-3.099 82.97-82.953 82.968 82.953c11.358 11.363 29.136 12.399 41.665 3.107l3.59-3.098zM928 447.601c-0.115-229.749-186.457-415.908-416.207-415.793-225.858 0.111-409.585 180.194-415.639 404.564l-0.154 11.628c0 225.856 179.989 409.674 404.818 415.837l11.668 0.16c228.187-3.472 412.265-187.734 415.513-416.396zM864.003 447.162c-2.753 193.581-158.912 349.897-352.003 352.838-190.805 0-346.15-151.813-351.838-341.239l-0.162-10.761 0.158-10.778c5.487-185.856 155.055-335.573 340.905-341.248l10.761-0.166c194.404-0.098 352.079 157.419 352.179 351.354z" />
<glyph unicode="&#xe929;" glyph-name="arrow-left-4" d="M566.12 576.223c-11.359 11.363-29.136 12.399-41.665 3.107l-3.59-3.098-105.642-105.6c-11.366-11.362-12.399-29.145-3.102-41.675l3.102-3.589 105.642-105.599c12.499-12.497 32.76-12.493 45.255 0.009 11.358 11.362 12.387 29.141 3.090 41.664l-3.099 3.588-82.953 82.97 82.953 82.968c11.363 11.358 12.399 29.136 3.107 41.665l-3.098 3.59zM511.601 864c-229.749-0.115-415.908-186.457-415.793-416.207 0.111-225.858 180.194-409.585 404.564-415.639l11.628-0.154c225.856 0 409.674 179.989 415.837 404.818l0.16 11.668c-3.472 228.187-187.734 412.265-416.396 415.513zM511.162 800.003c193.581-2.753 349.897-158.912 352.838-352.003 0-190.805-151.813-346.15-341.239-351.838l-10.761-0.162-10.778 0.158c-185.856 5.487-335.573 155.055-341.248 340.905l-0.166 10.761c-0.098 194.404 157.419 352.079 351.354 352.179z" />
<glyph unicode="&#xe92a;" glyph-name="arrow-right-4" d="M457.88 576.223c11.359 11.363 29.136 12.399 41.665 3.107l3.59-3.098 105.642-105.6c11.366-11.362 12.399-29.145 3.102-41.675l-3.102-3.589-105.642-105.599c-12.499-12.497-32.76-12.493-45.255 0.009-11.358 11.362-12.387 29.141-3.090 41.664l3.099 3.588 82.953 82.97-82.953 82.968c-11.363 11.358-12.399 29.136-3.107 41.665l3.098 3.59zM512.399 864c229.749-0.115 415.908-186.457 415.793-416.207-0.111-225.858-180.194-409.585-404.564-415.639l-11.628-0.154c-225.856 0-409.674 179.989-415.837 404.818l-0.16 11.668c3.472 228.187 187.734 412.265 416.396 415.513zM512.838 800.003c-193.581-2.753-349.897-158.912-352.838-352.003 0-190.805 151.813-346.15 341.239-351.838l10.761-0.162 10.778 0.158c185.856 5.487 335.573 155.055 341.248 340.905l0.166 10.761c0.098 194.404-157.419 352.079-351.354 352.179z" />
<glyph unicode="&#xe92b;" glyph-name="archive-documents" d="M810.667 866.133h-597.333c-64 0-119.467-55.467-119.467-119.467v-597.333c0-64 51.2-119.467 119.467-119.467h597.333c64 0 119.467 51.2 119.467 119.467v597.333c0 64-55.467 119.467-119.467 119.467zM418.133 797.867h192v-51.2c0-4.267-4.267-8.533-8.533-8.533h-170.667c-8.533 0-12.8 4.267-12.8 8.533v51.2zM861.867 149.333c0-29.867-25.6-51.2-51.2-51.2h-597.333c-29.867 0-51.2 25.6-51.2 51.2v264.533h192v-51.2c0-42.667 34.133-76.8 76.8-76.8h170.667c42.667 0 76.8 34.133 76.8 76.8v51.2h192v-264.533zM418.133 362.667v51.2h192v-51.2c0-4.267-4.267-8.533-8.533-8.533h-170.667c-8.533 0-12.8 4.267-12.8 8.533zM861.867 482.133h-699.733v264.533c0 29.867 25.6 51.2 51.2 51.2h136.533v-51.2c0-42.667 34.133-76.8 76.8-76.8h170.667c42.667 0 76.8 34.133 76.8 76.8v51.2h136.533c29.867 0 51.2-25.6 51.2-51.2v-264.533z" />
<glyph unicode="&#xe92c;" glyph-name="arrow-backspace-add-plus" d="M725.333 778.667h-324.267c-61.566 0-119.794-27.986-158.255-76.061l-102.4-128c-59.215-74.019-59.215-179.192 0-253.21l102.4-128c38.461-48.077 96.689-76.062 158.255-76.062h324.267c111.932 0 202.667 90.735 202.667 202.667v256c0 111.93-90.735 202.667-202.667 202.667zM401.067 714.667h324.267c76.582 0 138.667-62.083 138.667-138.667v-256c0-76.582-62.084-138.667-138.667-138.667h-324.267c-42.124 0-81.964 19.149-108.279 52.041l-102.4 128c-40.515 50.645-40.515 122.607 0 173.251l102.4 128c26.315 32.893 66.156 52.042 108.279 52.042zM640 480c17.673 0 32-14.327 32-32 0-16.201-12.041-29.589-27.657-31.71l-4.343-0.29h-170.667c-17.673 0-32 14.327-32 32 0 16.201 12.041 29.589 27.657 31.71l4.343 0.29h170.667zM554.667 565.333c16.201 0 29.589-12.038 31.71-27.658l0.29-4.342v-170.667c0-17.673-14.327-32-32-32-16.201 0-29.589 12.041-31.71 27.657l-0.29 4.343v170.667c0 17.673 14.327 32 32 32z" />
<glyph unicode="&#xe92d;" glyph-name="arrow-backspace-cross-delete" d="M468.041 534.627c11.358 11.361 29.137 12.393 41.664 3.098l3.588-3.098 128-128.001c12.497-12.497 12.497-32.755 0-45.252-11.358-11.362-29.137-12.395-41.664-3.098l-3.588 3.098-128 128c-12.497 12.497-12.497 32.755 0 45.254zM596.041 534.627c12.497 12.497 32.755 12.497 45.252 0 11.362-11.359 12.395-29.138 3.098-41.665l-3.098-3.588-128-128c-12.497-12.497-32.755-12.497-45.252 0-11.362 11.358-12.395 29.137-3.098 41.664l3.098 3.588 128 128.001zM725.333 778.667h-324.267c-61.566 0-119.794-27.986-158.255-76.061l-102.4-128c-59.215-74.019-59.215-179.192 0-253.21l102.4-128c38.461-48.077 96.689-76.062 158.255-76.062h324.267c111.932 0 202.667 90.735 202.667 202.667v256c0 111.93-90.735 202.667-202.667 202.667zM401.067 714.667h324.267c76.582 0 138.667-62.083 138.667-138.667v-256c0-76.582-62.084-138.667-138.667-138.667h-324.267c-42.124 0-81.964 19.149-108.279 52.041l-102.4 128c-40.515 50.645-40.515 122.607 0 173.251l102.4 128c26.315 32.893 66.156 52.042 108.279 52.042z" />
<glyph unicode="&#xe92e;" glyph-name="arrow-backspace-more" d="M554.624 482.133c9.067 0.013 17.766-3.584 24.179-9.997 3.844-3.849 6.682-8.516 8.329-13.598l1.25-5.201 0.418-5.38c-0.021-18.837-15.305-34.099-34.146-34.091s-34.112 15.279-34.121 34.121c-0.009 18.842 15.253 34.125 34.091 34.146zM725.333 778.667h-324.267c-61.566 0-119.794-27.986-158.255-76.061l-102.4-128c-59.215-74.019-59.215-179.192 0-253.21l102.4-128c38.461-48.077 96.689-76.062 158.255-76.062h324.267c111.932 0 202.667 90.735 202.667 202.667v256c0 111.93-90.735 202.667-202.667 202.667zM401.067 714.667h324.267c76.582 0 138.667-62.083 138.667-138.667v-256c0-76.582-62.084-138.667-138.667-138.667h-324.267c-42.124 0-81.964 19.149-108.279 52.041l-102.4 128c-40.515 50.645-40.515 122.607 0 173.251l102.4 128c26.315 32.893 66.156 52.042 108.279 52.042zM703.957 482.133c9.067 0.013 17.766-3.584 24.179-9.997 3.844-3.849 6.682-8.516 8.329-13.598l1.25-5.201 0.418-5.38c-0.021-18.837-15.305-34.099-34.146-34.091s-34.112 15.279-34.121 34.121c-0.009 18.842 15.253 34.125 34.091 34.146zM405.292 482.133c9.067 0.013 17.766-3.584 24.177-9.997 3.844-3.849 6.682-8.516 8.329-13.598l1.25-5.201 0.418-5.38c-0.021-18.837-15.306-34.099-34.147-34.091s-34.112 15.279-34.12 34.121c-0.008 18.842 15.252 34.125 34.092 34.146z" />
<glyph unicode="&#xe92f;" glyph-name="arrow-direction-cross-circle" d="M217.6 742.4c0 0-4.267-4.267-8.533-8.533 4.267 0 4.267 4.267 8.533 8.533-4.267-4.267 0-4.267 0 0zM512 866.133c-115.2 0-221.867-46.933-294.4-123.733 0 0-4.267-4.267-8.533-8.533-68.267-72.533-115.2-174.933-115.2-285.867 0-230.4 187.733-418.133 418.133-418.133 110.933 0 213.333 42.667 285.867 115.2 0 0 4.267 4.267 4.267 4.267s0 0 0 0c76.8 76.8 123.733 179.2 123.733 298.667 4.267 230.4-183.467 418.133-413.867 418.133zM512 98.133c-196.267 0-349.867 157.867-349.867 349.867 0 85.333 29.867 162.133 76.8 221.867l76.8-76.8c12.8-8.533 29.867-8.533 42.667 4.267s12.8 34.133 0 46.933l-76.8 72.533c59.733 51.2 140.8 85.333 230.4 85.333 196.267 0 349.867-157.867 349.867-349.867 0-85.333-34.133-166.4-85.333-230.4l-76.8 76.8c-12.8 8.533-29.867 8.533-42.667-4.267s-12.8-34.133 0-46.933l72.533-72.533c-55.467-51.2-132.267-76.8-217.6-76.8zM597.333 627.2l-256-76.8c-29.867-8.533-51.2-34.133-55.467-68.267 0-29.867 17.067-59.733 46.933-72.533l93.867-38.4c4.267 0 4.267-4.267 4.267-4.267l38.4-93.867c12.8-29.867 42.667-46.933 72.533-46.933s59.733 21.333 68.267 55.467l76.8 256c8.533 25.6 0 55.467-17.067 72.533s-46.933 25.6-72.533 17.067zM614.4 563.2c4.267 0 8.533 0 8.533-4.267 4.267-4.267 4.267-8.533 4.267-8.533l-76.8-256c0-4.267-4.267-8.533-8.533-8.533s-8.533 4.267-8.533 8.533l-38.4 93.867c-8.533 17.067-21.333 34.133-38.4 38.4l-93.867 38.4c-4.267 0-8.533 4.267-8.533 8.533s4.267 8.533 8.533 8.533l251.733 81.067z" />
<glyph unicode="&#xe930;" glyph-name="location-circle" d="M620.762 635.954l-330.102-122.674c-50.778-24.256-44.687-100.962 12.052-115.255l127.581-32.030 31.851-127.155c14.81-58.799 96.644-63.309 117.675-6.438l120.222 324.283c18.351 49.46-29.811 97.62-79.279 79.27zM638.251 574.208l-115.883-312.491-34.624 138.377-1.348 4.164c-3.789 9.421-11.878 16.58-21.892 19.098l-138.914 34.927 312.661 115.925zM217.846 742.156c162.458 162.458 425.853 162.458 588.311 0s162.458-425.856 0-588.313c-162.458-162.458-425.853-162.458-588.311 0s-162.458 425.856 0 588.313zM752.201 705.314c-138.010 128.992-354.499 126.188-489.1-8.413-137.465-137.464-137.465-360.338 0-497.802s360.336-137.463 497.804 0c134.601 134.601 137.404 351.088 8.41 489.101l-8.41 8.701-8.704 8.413z" />
<glyph unicode="&#xe931;" glyph-name="repeat" d="M640 736c17.673 0 32-14.327 32-32 0-16.201-12.041-29.589-27.657-31.708l-4.343-0.292h-256c-123.724 0-224-100.276-224-224 0-69.423 31.863-133.5 85.527-175.838 13.875-10.944 16.249-31.066 5.302-44.941s-31.068-16.252-44.943-5.303c-68.866 54.332-109.886 136.823-109.886 226.082 0 155.686 123.502 282.5 277.888 287.826l10.112 0.174h256zM773.171 668.78c10.944 13.875 31.066 16.249 44.941 5.302 68.868-54.331 109.888-136.823 109.888-226.083 0-155.686-123.503-282.5-277.888-287.825l-10.112-0.175h-256c-17.673 0-32 14.327-32 32 0 16.201 12.038 29.589 27.658 31.71l4.342 0.29h256c123.725 0 224 100.275 224 224 0 69.424-31.863 133.499-85.525 175.837-13.875 10.947-16.252 31.068-5.303 44.943zM468.039 321.293c12.497 12.497 32.758 12.497 45.255 0 11.361-11.358 12.393-29.137 3.098-41.664l-3.098-3.588-84.025-84.041 84.025-84.041c11.361-11.358 12.393-29.137 3.098-41.664l-3.098-3.588c-11.361-11.362-29.138-12.395-41.666-3.098l-3.589 3.098-106.667 106.667c-11.361 11.358-12.393 29.137-3.098 41.664l3.098 3.588 106.667 106.667zM510.706 833.294c11.361 11.361 29.138 12.394 41.666 3.098l3.588-3.098 106.667-106.667c11.362-11.361 12.395-29.138 3.098-41.666l-3.098-3.589-106.667-106.667c-12.495-12.497-32.757-12.497-45.254 0-11.361 11.361-12.393 29.138-3.098 41.666l3.098 3.589 84.025 84.039-84.025 84.039c-11.361 11.361-12.393 29.138-3.098 41.666l3.098 3.589z" />
<glyph unicode="&#xe932;" glyph-name="repeat-2" d="M853.115 478.635c17.677-0.070 31.945-14.453 31.876-32.126-0.384-98.033-38.528-192.032-109.001-262.5-145.788-145.788-382.197-145.788-527.984 0-25.309 25.306-46.593 53.99-63.745 85.419-8.466 15.514-2.753 34.953 12.76 43.418 15.513 8.469 34.953 2.756 43.418-12.757 14.266-26.142 31.895-49.899 52.821-70.827 120.794-120.794 316.684-120.794 437.477 0 58.377 58.377 89.933 136.147 90.253 217.5 0.068 17.673 14.451 31.943 32.124 31.874zM248.007 711.993c145.787 145.787 382.196 145.787 527.984 0 25.31-25.309 46.596-53.992 63.744-85.421 8.469-15.513 2.756-34.953-12.757-43.418s-34.953-2.753-43.418 12.76c-14.268 26.142-31.898 49.899-52.821 70.825-120.794 120.794-316.683 120.794-437.477 0-57.534-57.534-89.153-133.829-90.429-213.702-0.282-17.671-14.836-31.767-32.507-31.485s-31.767 14.836-31.489 32.506c1.542 96.316 39.755 188.521 109.17 257.935zM831.488 794.069c16.201 0 29.589-12.039 31.71-27.658l0.29-4.342v-150.869c0-16.201-12.041-29.589-27.657-31.708l-4.343-0.292h-150.827c-17.673 0-32 14.327-32 32 0 16.201 12.041 29.589 27.657 31.708l4.343 0.292h118.784l0.043 118.869c0 16.2 12.041 29.589 27.657 31.708l4.343 0.292zM343.338 316.8c17.673 0 32-14.327 32-32 0-16.201-12.038-29.589-27.658-31.71l-4.342-0.29h-118.869l0.043-118.869c0-16.201-12.039-29.589-27.658-31.71l-4.342-0.29c-16.2 0-29.589 12.041-31.708 27.657l-0.292 4.343v150.869c0 16.201 12.039 29.589 27.658 31.71l4.342 0.29h150.827z" />
<glyph unicode="&#xe933;" glyph-name="rotate" d="M675.55 579.524c-35.853 4.685-35.853 58.667 0 63.351l5.111 0.324h118.827v118.869c0 16.2 12.041 29.589 27.657 31.708l4.343 0.292c16.201 0 29.589-12.039 31.71-27.658l0.29-4.342v-150.869c0-16.201-12.041-29.589-27.657-31.708l-4.343-0.292h-150.827l-5.111 0.324zM512 821.333c138.108 0 262.933-75.72 327.91-194.806 8.465-15.514 2.748-34.953-12.766-43.418s-34.953-2.751-43.418 12.763c-53.871 98.733-157.274 161.46-271.727 161.46-170.828 0-309.333-138.505-309.333-309.333s138.505-309.333 309.333-309.333c170.829 0 309.333 138.505 309.333 309.333 0 17.673 14.327 32 32 32s32-14.327 32-32c0-206.174-167.159-373.333-373.333-373.333s-373.333 167.159-373.333 373.333c0 206.174 167.159 373.333 373.333 373.333z" />
<glyph unicode="&#xe934;" glyph-name="shuffle" d="M788.041 343.522c11.358 11.362 29.137 12.395 41.664 3.098l3.588-3.098 85.333-85.333c11.362-11.358 12.395-29.137 3.098-41.664l-3.098-3.588-85.333-85.333c-12.497-12.497-32.755-12.497-45.252 0-11.362 11.358-12.395 29.137-3.098 41.664l3.098 3.588 62.69 62.707-62.69 62.707c-11.362 11.358-12.395 29.137-3.098 41.664l3.098 3.588zM297.544 735.83c35.025 0.108 68.115-15.377 90.405-41.996l4.948-6.338 67.413-92.672c10.397-14.292 7.239-34.306-7.053-44.702-12.993-9.452-30.714-7.701-41.64 3.433l-3.062 3.62-67.42 92.681c-8.951 12.314-22.696 20.14-37.684 21.69l-5.672 0.284-169.643-0.726c-17.673-0.076-32.061 14.19-32.137 31.863-0.069 16.2 11.912 29.64 27.522 31.826l4.341 0.311 169.681 0.727zM788.041 811.961c11.358 11.361 29.137 12.394 41.664 3.098l3.588-3.098 85.333-85.333c11.362-11.361 12.395-29.138 3.098-41.666l-3.098-3.589-85.333-85.333c-12.497-12.497-32.755-12.497-45.252 0-11.362 11.361-12.395 29.138-3.098 41.666l3.098 3.589 62.69 62.706-62.69 62.706c-11.362 11.361-12.395 29.138-3.098 41.666l3.098 3.589zM570.743 388.544c12.992 9.452 30.716 7.701 41.638-3.433l3.063-3.62 67.422-92.68c8.951-12.314 22.694-20.139 37.683-21.692l5.67-0.282 169.643 0.725c17.673 0.077 32.060-14.191 32.137-31.863 0.068-16.201-11.913-29.641-27.524-31.825l-4.339-0.311-169.681-0.725c-35.025-0.107-68.113 15.377-90.402 41.997l-4.949 6.336-67.413 92.672c-10.397 14.293-7.241 34.306 7.053 44.702zM726.494 735.83l169.643-0.726c17.673-0.076 31.94-14.464 31.863-32.137-0.068-16.2-12.164-29.537-27.793-31.589l-4.343-0.273-169.655 0.726c-15.219 0.070-29.658-6.384-39.765-17.568l-3.584-4.412-289.956-398.671c-20.581-28.314-52.639-45.828-87.345-48.090l-8.052-0.252-169.643 0.725c-17.673 0.077-31.938 14.464-31.863 32.137 0.070 16.201 12.165 29.538 27.793 31.59l4.343 0.273 169.605-0.725c15.277-0.047 29.724 6.404 39.822 17.574l3.576 4.403 289.956 398.673c20.604 28.338 52.685 45.882 87.356 48.104l8.043 0.239z" />
<glyph unicode="&#xe935;" glyph-name="undo" d="M318.706 769.294c12.497 12.497 32.758 12.497 45.255 0 11.361-11.361 12.393-29.138 3.098-41.666l-3.098-3.589-105.358-105.373 105.358-105.373c11.361-11.361 12.393-29.138 3.098-41.666l-3.098-3.589c-11.361-11.361-29.138-12.393-41.666-3.098l-3.589 3.098-128 128c-11.361 11.361-12.394 29.138-3.098 41.666l3.098 3.589 128 128zM597.333 650.667c158.481 0 288-118.723 288-266.667 0-144.73-123.947-261.491-277.706-266.5l-10.294-0.166h-341.333c-17.673 0-32 14.327-32 32 0 16.201 12.039 29.589 27.658 31.71l4.342 0.29h341.333c124.318 0 224 91.371 224 202.667 0 108.365-94.502 197.844-214.238 202.478l-9.762 0.189h-384c-17.673 0-32 14.327-32 32 0 16.201 12.039 29.589 27.658 31.708l4.342 0.292h384z" />
<glyph unicode="&#xe936;" glyph-name="arrows-left-right" d="M574.707 598.627c11.358 11.361 29.137 12.393 41.664 3.098l3.588-3.098 128-128c11.362-11.361 12.395-29.138 3.098-41.666l-3.098-3.589-128-127.999c-12.497-12.497-32.755-12.497-45.252 0-11.362 11.358-12.395 29.137-3.098 41.664l3.098 3.588 105.357 105.374-105.357 105.373c-11.362 11.361-12.395 29.138-3.098 41.666l3.098 3.589zM404.039 598.627c12.497 12.497 32.758 12.497 45.255 0 11.361-11.361 12.393-29.138 3.098-41.666l-3.098-3.589-105.358-105.373 105.358-105.374c11.361-11.358 12.393-29.137 3.098-41.664l-3.098-3.588c-11.361-11.362-29.138-12.395-41.666-3.098l-3.589 3.098-128 127.999c-11.361 11.361-12.393 29.138-3.098 41.666l3.098 3.589 128 128zM512 864l-11.786-0.167c-225.046-6.512-404.214-190.631-404.214-415.833l0.167-11.786c6.512-225.044 190.631-404.214 415.833-404.214l11.786 0.166c225.044 6.511 404.214 190.63 404.214 415.834l-0.166 11.786c-6.511 225.046-190.63 404.214-415.834 404.214zM501.603 799.85l10.397 0.15c190.554 0 346.351-151.607 351.851-341.603l0.154-10.86c0-190.091-151.612-345.888-341.607-351.388l-10.86-0.154c-190.091 0-345.887 151.612-351.387 341.607l-0.154 10.86c0 190.091 151.61 345.887 341.606 351.387z" />
<glyph unicode="&#xe937;" glyph-name="attachment-link-circle" d="M476.372 628.194c58.203 52.631 146.809 52.631 205.010 0 60.45-54.66 67.063-146.64 15.479-210.333l-5.751-6.713-28.501-28.457c-12.506-12.489-32.764-12.471-45.252 0.034-11.354 11.366-12.373 29.146-3.068 41.667l3.102 3.587 27.375 27.277c32.905 36.39 30.080 92.564-6.306 125.469-31.953 28.891-79.663 30.496-112.399 5.734l-5.615-4.643-28.501-28.459c-12.506-12.487-32.768-12.472-45.255 0.034-11.352 11.369-12.372 29.147-3.067 41.668l3.101 3.587 29.649 29.549zM361.39 513.311c12.506 12.487 32.767 12.472 45.255-0.034 11.352-11.369 12.372-29.147 3.067-41.668l-3.101-3.587-27.377-27.277c-32.905-36.389-30.081-92.564 6.309-125.469 31.951-28.894 79.663-30.498 112.397-5.734l5.615 4.642 28.501 28.459c12.506 12.489 32.77 12.471 45.254-0.034 11.354-11.366 12.373-29.146 3.068-41.668l-3.102-3.584-29.648-29.551c-58.203-52.629-146.807-52.629-205.011 0-60.448 54.66-67.062 146.641-15.479 210.333l5.75 6.713 28.501 28.459zM512 864c-229.751 0-416-186.249-416-416s186.249-416 416-416c229.751 0 416 186.249 416 416s-186.249 416-416 416zM512 800c194.402 0 352-157.596 352-352 0-194.402-157.598-352-352-352-194.404 0-352 157.598-352 352 0 194.404 157.596 352 352 352zM560.627 541.881c12.497 12.497 32.755 12.497 45.252 0 11.362-11.361 12.395-29.138 3.098-41.666l-3.098-3.589-142.505-142.505c-12.497-12.497-32.758-12.497-45.255 0-11.361 11.358-12.393 29.137-3.098 41.664l3.098 3.588 142.508 142.508z" />
<glyph unicode="&#xe938;" glyph-name="attention-fire" d="M397.64 799.27l-326.779-571.937c-50.211-87.799 13.195-197.082 114.355-197.082h653.568c101.116 0 164.514 109.274 114.355 197.077l-326.78 571.942c-50.556 88.54-178.163 88.54-228.719 0zM570.782 767.536l326.788-571.956c25.788-45.141-6.814-101.329-58.786-101.329h-653.568c-52.012 0-84.608 56.179-58.793 101.321l326.79 571.956c25.993 45.527 91.58 45.527 117.568 0.008zM505.826 618.485c-44.484-48.928-64.589-115.351-54.707-180.746l1.020-5.909-2.278 0.35c-4.292 1.152-8.145 4.041-10.368 8.474l-17.385 34.859c-9.755 19.554-35.809 23.795-51.263 8.341-36.348-36.348-56.775-85.662-56.775-137.101v-4.053c0-109.321 88.61-197.931 197.931-197.931 105.532 0 192.354 82.773 197.675 187.772l0.247 9.348c0.009 55.471-24.734 107.174-67.307 141.449l-25.715 20.723c-20.433 16.486-34.726 39.362-40.546 64.924l-9.476 41.562c-5.594 24.543-36.023 33.316-53.824 15.516l-7.228-7.577zM522.364 524.732l0.602 1.562c11.661-28.211 30.037-52.915 53.764-72.055l25.741-20.74c27.49-22.135 43.46-55.509 43.46-90.799l-0.205-7.731c-3.567-70.182-62.323-126.199-133.726-126.199-71.424 0-129.779 55.893-133.719 126.332l-0.212 11.652 0.283 8.58c0.942 14.242 4.215 28.13 9.602 41.139l1.635 3.657 3.142-4.066c29.372-34.91 84.051-39.027 118.172-4.907 7.561 7.556 10.846 18.394 8.759 28.877l-3.968 19.925c-5.76 28.766-3.217 58.078 6.669 84.774z" />
<glyph unicode="&#xe939;" glyph-name="backspace-checkmark" d="M725.333 778.667h-324.266c-61.567 0-119.795-27.986-158.255-76.062l-102.4-128c-59.215-74.018-59.215-179.191 0-253.21l102.4-128c38.461-48.077 96.689-76.062 158.255-76.062h324.266c111.932 0 202.667 90.739 202.667 202.667v256c0 111.93-90.735 202.667-202.667 202.667zM401.067 714.667h324.266c76.582 0 138.667-62.083 138.667-138.667v-256c0-76.582-62.084-138.667-138.667-138.667h-324.266c-42.124 0-81.965 19.149-108.28 52.041l-102.4 128c-40.515 50.645-40.515 122.607 0 173.251l102.4 128c26.315 32.894 66.156 52.042 108.28 52.042zM617.365 534.621c12.497 12.5 32.755 12.506 45.257 0.012 11.362-11.357 12.399-29.136 3.11-41.663l-3.098-3.593-106.611-106.667c-11.358-11.362-29.133-12.399-41.66-3.11l-3.593 3.093-64.055 64c-12.501 12.493-12.51 32.755-0.021 45.257 11.358 11.366 29.133 12.407 41.668 3.115l3.588-3.093 41.382-41.37 84.032 84.019z" />
<glyph unicode="&#xe93b;" glyph-name="bank-3-circle" d="M759.467 490.667v51.2c0 21.333-8.533 38.4-25.6 46.933l-162.133 89.6c-34.133 21.333-81.067 21.333-115.2 0l-162.133-89.6c-17.067-8.533-29.867-25.6-29.867-46.933v-51.2c0-25.6 17.067-46.933 42.667-51.2v-128h-8.533c-17.067 0-34.133-12.8-34.133-34.133s12.8-34.133 34.133-34.133h426.667c17.067 0 34.133 12.8 34.133 34.133s-12.8 34.133-34.133 34.133h-8.533v128c21.333 4.267 42.667 25.6 42.667 51.2zM332.8 537.6l153.6 85.333c17.067 8.533 34.133 8.533 51.2 0l153.6-85.333v-34.133h-358.4v34.133zM375.467 439.467h51.2v-128h-51.2v128zM486.4 439.467h51.2v-128h-51.2v128zM601.6 311.467v128h51.2v-128h-51.2zM512 908.8c-251.733 0-460.8-209.067-460.8-460.8s204.8-460.8 460.8-460.8c251.733 0 460.8 204.8 460.8 460.8 0 251.733-209.067 460.8-460.8 460.8zM512 840.533c217.6 0 392.533-174.933 392.533-392.533s-174.933-392.533-392.533-392.533c-217.6 0-392.533 174.933-392.533 392.533s174.933 392.533 392.533 392.533z" />
<glyph unicode="&#xe93c;" glyph-name="bank-checkmark-circle" d="M511.573 862.336c42.667 0 81.067-8.533 123.733-17.067 17.067-4.267 25.6-21.333 21.333-38.4s-21.333-25.6-38.4-21.333c-34.133 8.533-64 12.8-93.867 12.8l-12.8 4.267c-192 0-345.6-153.6-354.133-341.333v-12.8c0-196.267 157.867-349.867 349.867-349.867 196.267 0 349.867 157.867 349.867 349.867 0 34.133-4.267 68.267-17.067 102.4-4.267 17.067 4.267 34.133 21.333 38.4s34.133-4.267 38.4-21.333c21.333-38.4 29.867-76.8 29.867-119.467 0-230.4-187.733-413.867-418.133-413.867s-418.133 187.733-418.133 413.867c0 226.133 179.2 409.6 405.333 413.867h12.8zM874.24 798.336c12.8 12.8 34.133 12.8 46.933 0s12.8-29.867 4.267-42.667l-89.6-89.6c-12.8-12.8-29.867-12.8-42.667-4.267l-59.733 59.733c-12.8 12.8-12.8 34.133 0 46.933s29.867 12.8 42.667 4.267l34.133-34.133 64 59.733zM682.24 452.736c17.067 0 34.133 12.8 34.133 34.133v72.533c0 12.8-8.533 25.6-21.333 29.867l-170.667 68.267c-8.533 4.267-17.067 4.267-25.6 0l-170.667-68.267c-12.8-4.267-17.067-17.067-17.067-29.867v-76.8c0-17.067 12.8-34.133 34.133-34.133h8.533v-128h-17.067c-17.067 0-29.867-17.067-29.867-29.867 0-17.067 12.8-34.133 34.133-34.133h345.6c17.067 0 29.867 17.067 29.867 29.867 0 17.067-12.8 34.133-34.133 34.133h-8.533v132.267h8.533zM375.040 538.069l136.533 55.467 136.533-55.467v-21.333h-273.067v21.333zM417.707 452.736h64v-132.267h-64v132.267zM609.707 320.469h-64v132.267h64v-132.267z" />
<glyph unicode="&#xe93d;" glyph-name="bank-shield-protction" d="M477.867 857.6l-277.333-85.333c-51.2-17.067-81.067-59.733-81.067-110.933v-157.867c0-196.267 119.467-375.467 302.933-448l12.8-4.267c51.2-17.067 106.667-17.067 157.867 0v0c187.733 72.533 315.733 251.733 315.733 456.533v153.6c0 51.2-34.133 98.133-81.067 110.933l-277.333 85.333c-25.6 8.533-51.2 8.533-72.533 0zM529.067 797.867l277.333-85.333c21.333-8.533 38.4-29.867 38.4-51.2v-157.867c0-170.667-102.4-324.267-260.267-388.267l-17.067-8.533c-34.133-12.8-68.267-12.8-102.4-4.267l-8.533 4.267c-166.4 59.733-273.067 217.6-273.067 392.533v162.133c0 21.333 17.067 42.667 38.4 51.2l277.333 85.333c8.533 4.267 17.067 4.267 29.867 0zM682.667 482.133c17.067 0 34.133 12.8 34.133 34.133v72.533c0 12.8-8.533 25.6-21.333 29.867l-170.667 72.533c-8.533 4.267-17.067 4.267-25.6 0l-170.667-72.533c-12.8-4.267-21.333-12.8-21.333-29.867v-76.8c0-17.067 12.8-34.133 34.133-34.133h8.533v-128h-12.8c-17.067 0-29.867-17.067-29.867-29.867 0-17.067 12.8-34.133 34.133-34.133h345.6c17.067 0 29.867 17.067 29.867 29.867 0 17.067-12.8 34.133-34.133 34.133h-8.533v128h8.533zM375.467 567.467l136.533 59.733 136.533-55.467v-25.6h-273.067v21.333zM418.133 482.133h64v-128h-64v128zM605.867 354.133h-64v128h64v-128z" />
<glyph unicode="&#xe93f;" glyph-name="bell-checkmark" d="M885.205 291.030c-4.267 29.867-17.067 59.733-34.133 76.8l-51.2 51.2v157.867c0 153.6-123.733 281.6-277.333 290.133h-12.8c-153.6 0-281.6-123.733-290.133-277.333v-170.667l-46.933-46.933h-4.267c-21.333-21.333-34.133-46.933-34.133-76.8v-17.067c4.267-64 55.467-115.2 119.467-115.2h119.467c4.267-72.533 64-128 136.533-128v0h4.267c68.267 4.267 123.733 59.733 132.267 128h106.667c0 0 4.267 0 4.267 0h4.267c64 0 119.467 55.467 119.467 119.467l4.267 8.533zM509.739 94.763h-4.267c-34.133 4.267-64 29.867-68.267 64h145.067c-4.267-34.133-34.133-64-72.533-64zM821.205 273.963c-4.267-25.6-21.333-42.667-42.667-46.933h-4.267c-4.267 0-4.267 0-8.533 0h-507.733c-29.867 0-55.467 25.6-55.467 55.467v12.8c4.267 8.533 8.533 17.067 12.8 25.6v4.267h4.267l59.733 59.733c4.267 4.267 8.533 12.8 8.533 21.333v179.2c4.267 119.467 102.4 213.333 226.133 213.333h8.533c119.467-4.267 213.333-102.4 213.333-221.867v-174.933c0-8.533 4.267-17.067 8.533-21.333l59.733-59.733c12.8-12.8 17.067-25.6 17.067-42.667v-4.267zM569.472 547.030c12.8 12.8 34.133 12.8 46.933 0s12.8-29.867 4.267-42.667l-4.267-4.267-102.4-93.867c-12.8-12.8-29.867-12.8-42.667-4.267v4.267l-59.733 55.467c-12.8 12.8-12.8 34.133 0 46.933s29.867 12.8 42.667 4.267l4.267-4.267 38.4-34.133 72.533 72.533z" />
<glyph unicode="&#xe940;" glyph-name="bell-cross-delete" d="M885.205 291.030c-4.267 29.867-17.067 59.733-34.133 76.8l-51.2 51.2v157.867c0 153.6-123.733 281.6-277.333 290.133h-12.8c-153.6 0-281.6-123.733-290.133-277.333v-170.667l-46.933-46.933h-4.267c-21.333-21.333-34.133-46.933-34.133-76.8v-17.067c4.267-64 55.467-115.2 119.467-115.2h119.467c4.267-72.533 64-128 136.533-128v0h4.267c68.267 4.267 123.733 59.733 132.267 128h106.667c0 0 4.267 0 4.267 0h4.267c64 0 119.467 55.467 119.467 119.467l4.267 8.533zM509.739 94.763h-4.267c-34.133 4.267-64 29.867-68.267 64h145.067c-4.267-34.133-34.133-64-72.533-64zM821.205 273.963c-4.267-25.6-21.333-42.667-42.667-46.933h-4.267c-4.267 0-4.267 0-8.533 0h-507.733c-29.867 0-55.467 25.6-55.467 55.467v12.8c4.267 8.533 8.533 17.067 12.8 25.6v4.267h4.267l59.733 59.733c4.267 4.267 8.533 12.8 8.533 21.333v179.2c4.267 119.467 102.4 213.333 226.133 213.333h8.533c119.467-4.267 213.333-102.4 213.333-221.867v-174.933c0-8.533 4.267-17.067 8.533-21.333l59.733-59.733c12.8-12.8 17.067-25.6 17.067-42.667v-4.267zM552.405 564.096c12.8 12.8 34.133 12.8 46.933 0s12.8-29.867 4.267-42.667l-132.267-132.267c-12.8-12.8-34.133-12.8-46.933 0s-12.8 29.867-4.267 42.667l132.267 132.267zM424.405 564.096c12.8 8.533 29.867 12.8 42.667 0l132.267-132.267c12.8-12.8 12.8-34.133 0-46.933s-29.867-12.8-42.667-4.267l-4.267 8.533-128 128c-12.8 12.8-12.8 34.133 0 46.933z" />
<glyph unicode="&#xe941;" glyph-name="bell-minus" d="M597.333 507.733c17.067 0 34.133-12.8 34.133-29.867s-12.8-29.867-25.6-29.867h-174.933c-17.067 0-34.133 12.8-34.133 29.867s12.8 29.867 25.6 29.867h174.933zM887.467 281.6c0 29.867-17.067 64-38.4 85.333l-46.933 46.933v162.133c0 153.6-123.733 281.6-277.333 290.133h-21.333c-157.867-8.533-281.6-132.267-281.6-290.133v-157.867l-46.933-46.933c-21.333-21.333-34.133-46.933-34.133-76.8v-8.533c0-34.133 12.8-64 34.133-85.333s51.2-34.133 85.333-34.133h115.2c4.267-72.533 64-128 136.533-128h8.533c34.133 0 64 17.067 89.6 38.4s38.4 55.467 38.4 85.333h119.467c64 0 115.2 46.933 119.467 110.933v8.533zM563.2 119.467c-12.8-12.8-34.133-21.333-51.2-21.333h-8.533c-34.133 4.267-64 29.867-68.267 64h145.067c4.267-17.067-4.267-34.133-17.067-42.667zM819.2 273.067c0-25.6-25.6-51.2-55.467-51.2h-507.733c-12.8 0-29.867 4.267-38.4 17.067-8.533 8.533-17.067 25.6-17.067 38.4v8.533c0 12.8 8.533 25.6 17.067 34.133l59.733 59.733c4.267 4.267 8.533 12.8 8.533 21.333v174.933c0 123.733 98.133 221.867 221.867 221.867h8.533c119.467-4.267 213.333-102.4 213.333-221.867v-170.667c0-8.533 4.267-17.067 8.533-21.333l59.733-59.733c12.8-12.8 21.333-34.133 21.333-51.2v0z" />
<glyph unicode="&#xe942;" glyph-name="bell-notification-add-plus" d="M509.739 593.963c17.067 0 29.867-12.8 29.867-25.6v-174.933c0-17.067-12.8-34.133-34.133-34.133-17.067 0-29.867 12.8-29.867 25.6v174.933c4.267 17.067 17.067 34.133 34.133 34.133zM599.339 508.63c17.067 0 34.133-12.8 34.133-29.867s-12.8-29.867-25.6-29.867h-174.933c-17.067 0-34.133 12.8-34.133 29.867s12.8 29.867 25.6 29.867h174.933zM885.205 291.030c-4.267 29.867-17.067 59.733-34.133 76.8l-51.2 51.2v157.867c0 153.6-123.733 281.6-277.333 290.133h-12.8c-153.6 0-281.6-123.733-290.133-277.333v-170.667l-46.933-46.933h-4.267c-21.333-21.333-34.133-46.933-34.133-76.8v-17.067c4.267-64 55.467-115.2 119.467-115.2h119.467c4.267-72.533 64-128 136.533-128v0h4.267c68.267 4.267 123.733 59.733 132.267 128h106.667c0 0 4.267 0 4.267 0h4.267c64 0 119.467 55.467 119.467 119.467l4.267 8.533zM509.739 94.763h-4.267c-34.133 4.267-64 29.867-68.267 64h145.067c-4.267-34.133-34.133-64-72.533-64zM821.205 273.963c-4.267-25.6-21.333-42.667-42.667-46.933h-4.267c-4.267 0-4.267 0-8.533 0h-507.733c-29.867 0-55.467 25.6-55.467 55.467v12.8c4.267 8.533 8.533 17.067 12.8 25.6v4.267h4.267l59.733 59.733c4.267 4.267 8.533 12.8 8.533 21.333v179.2c4.267 119.467 102.4 213.333 226.133 213.333h8.533c119.467-4.267 213.333-102.4 213.333-221.867v-174.933c0-8.533 4.267-17.067 8.533-21.333l59.733-59.733c12.8-12.8 17.067-25.6 17.067-42.667v-4.267z" />
<glyph unicode="&#xe943;" glyph-name="bell-style-notification" d="M806.4 371.2h-4.267v174.933c0 4.267 0 8.533 0 12.8 51.2 25.6 85.333 81.067 85.333 140.8 0 89.6-72.533 162.133-162.133 162.133-51.2 0-93.867-21.333-123.733-55.467-29.867 8.533-59.733 12.8-89.6 12.8h-8.533c-157.867-4.267-281.6-128-281.6-285.867v-162.133h-4.267c-46.933-12.8-81.067-55.467-81.067-102.4 0-59.733 46.933-106.667 106.667-106.667h128c4.267-72.533 64-128 136.533-128h8.533c34.133 0 64 17.067 89.6 38.4s38.4 55.467 38.4 85.333h136.533c55.467 4.267 98.133 51.2 98.133 106.667v8.533c4.267 46.933-29.867 85.333-72.533 98.133zM725.333 797.867c51.2 0 93.867-42.667 93.867-93.867 0-42.667-25.6-76.8-64-89.6v0c0 0-4.267 0-4.267 0s0 0 0 0c-8.533 0-17.067-4.267-25.6-4.267-51.2 0-93.867 42.667-93.867 93.867 0 17.067 4.267 29.867 12.8 42.667 0 0 0 0 0 0s0 4.267 4.267 4.267c0 0 0 0 0 0 12.8 29.867 42.667 46.933 76.8 46.933zM563.2 119.467c-12.8-12.8-34.133-21.333-51.2-21.333h-8.533c-34.133 4.267-64 29.867-68.267 64h145.067c4.267-17.067-4.267-34.133-17.067-42.667zM776.533 226.133h-533.333c-21.333 0-38.4 21.333-38.4 42.667s21.333 42.667 42.667 42.667h12.8c17.067 0 29.867 17.067 29.867 29.867v200.533c4.267 119.467 102.4 213.333 221.867 213.333 21.333 0 42.667-4.267 59.733-8.533-4.267-12.8-8.533-29.867-8.533-42.667 0-89.6 72.533-162.133 162.133-162.133 4.267 0 8.533 0 8.533 0 0-4.267 0-8.533 0-12.8v-196.267c0-17.067 17.067-29.867 29.867-29.867h12.8c21.333 0 38.4-21.333 38.4-42.667 4.267-17.067-12.8-34.133-38.4-34.133z" />
<glyph unicode="&#xe944;" glyph-name="bell" d="M883.2 273.067v8.533c-4.267 42.667-38.4 76.8-76.8 89.6h-4.267v162.133c0 76.8-29.867 149.333-85.333 204.8-51.2 51.2-119.467 81.067-192 85.333h-29.867c-153.6-12.8-273.067-140.8-273.067-290.133v-162.133h-4.267c-46.933-12.8-81.067-55.467-81.067-102.4v-8.533c4.267-55.467 51.2-98.133 106.667-98.133h128c4.267-72.533 64-128 136.533-128h8.533c34.133 0 64 17.067 89.6 38.4s38.4 55.467 38.4 85.333h128c59.733 0 106.667 46.933 106.667 106.667l4.267 8.533zM563.2 119.467c-12.8-12.8-34.133-21.333-51.2-21.333h-8.533c-34.133 4.267-64 29.867-68.267 64h145.067c4.267-17.067-4.267-34.133-17.067-42.667zM819.2 264.533c0-21.333-21.333-42.667-42.667-42.667h-529.067c-21.333 0-42.667 17.067-42.667 38.4v4.267c0 21.333 21.333 42.667 42.667 42.667h8.533c17.067 0 34.133 12.8 34.133 34.133v192c0 119.467 93.867 217.6 213.333 221.867h8.533c59.733 0 115.2-21.333 157.867-64s64-98.133 64-157.867v-192c0-17.067 12.8-34.133 34.133-34.133h8.533c21.333 0 42.667-17.067 42.667-38.4v-4.267z" />
<glyph unicode="&#xe945;" glyph-name="bin-two-line" d="M789.333 714.667c16.201 0 29.589-12.038 31.706-27.658l0.294-4.342v-533.333c0-62.4-48.713-113.425-110.187-117.12l-7.147-0.213h-384c-62.401 0-113.425 48.713-117.119 110.187l-0.214 7.147v533.333c0 17.673 14.327 32 32 32 16.2 0 29.589-12.038 31.708-27.658l0.292-4.342v-533.333c0-27.614 20.986-50.325 47.88-53.056l5.453-0.277h384c27.614 0 50.325 20.988 53.056 47.881l0.277 5.453v533.333c0 17.673 14.327 32 32 32zM853.333 714.666c17.673 0 32-14.327 32-32 0-16.2-12.041-29.589-27.657-31.708l-4.343-0.292h-682.667c-17.673 0-32 14.327-32 32 0 16.201 12.038 29.589 27.658 31.708l4.342 0.292h682.667zM597.333 522.667c16.201 0 29.589-12.041 31.706-27.657l0.294-4.343v-256c0-17.673-14.327-32-32-32-16.201 0-29.589 12.041-31.71 27.657l-0.29 4.343v256c0 17.673 14.327 32 32 32zM426.667 522.667c16.201 0 29.589-12.041 31.706-27.657l0.294-4.343v-256c0-17.673-14.327-32-32-32-16.201 0-29.589 12.041-31.708 27.657l-0.292 4.343v256c0 17.673 14.327 32 32 32zM597.333 864c50.812 0 92.399-39.473 95.778-89.427l0.222-6.573v-64c0-17.673-14.327-32-32-32-16.201 0-29.589 12.039-31.71 27.658l-0.29 4.342v64c0 16.201-12.041 29.589-27.657 31.708l-4.343 0.292h-170.667c-16.201 0-29.589-12.038-31.708-27.658l-0.292-4.342v-85.333c0-17.673-14.327-32-32-32-16.201 0-29.589 12.039-31.708 27.658l-0.292 4.342v85.333c0 50.81 39.473 92.401 89.427 95.779l6.573 0.221h170.667z" />
<glyph unicode="&#xe946;" glyph-name="bin-trash" d="M789.333 714.667c16.201 0 29.589-12.038 31.71-27.658l0.29-4.342v-533.333c0-62.4-48.713-113.425-110.187-117.12l-7.147-0.213h-384c-62.401 0-113.425 48.713-117.119 110.187l-0.214 7.147v533.333c0 17.673 14.327 32 32 32 16.201 0 29.589-12.038 31.708-27.658l0.292-4.342v-533.333c0-27.614 20.986-50.325 47.88-53.056l5.453-0.277h384c27.614 0 50.325 20.988 53.056 47.881l0.277 5.453v533.333c0 17.673 14.327 32 32 32zM597.333 864c50.812 0 92.399-39.473 95.778-89.427l0.222-6.573v-85.333c0-17.673-14.327-32-32-32-16.201 0-29.589 12.038-31.71 27.658l-0.29 4.342v85.333c0 16.201-12.041 29.589-27.657 31.708l-4.343 0.292h-170.667c-16.201 0-29.589-12.038-31.708-27.658l-0.292-4.342v-85.333c0-17.673-14.327-32-32-32-16.201 0-29.589 12.038-31.708 27.658l-0.292 4.342v85.333c0 50.81 39.473 92.401 89.427 95.779l6.573 0.221h170.667zM853.333 714.667c17.673 0 32-14.327 32-32 0-16.201-12.041-29.589-27.657-31.708l-4.343-0.292h-682.667c-17.673 0-32 14.327-32 32 0 16.201 12.038 29.589 27.658 31.708l4.342 0.292h682.667z" />
<glyph unicode="&#xe947;" glyph-name="bin-checkmark" d="M632 864c42.078 0 76.57-32.487 79.757-73.748l0.243-6.252v-101.333c0-17.673-14.327-32-32-32-16.201 0-29.589 12.038-31.71 27.658l-0.29 4.342v101.333c0 7.732-5.487 14.183-12.774 15.675l-3.226 0.325h-240c-7.732 0-14.183-5.484-15.675-12.775l-0.325-3.225v-101.333c0-17.673-14.327-32-32-32-16.201 0-29.589 12.038-31.708 27.658l-0.292 4.342v101.333c0 42.079 32.487 76.57 73.748 79.759l6.252 0.241h240zM561.724 451.844c12.493 12.497 32.751 12.506 45.252 0.013 11.366-11.358 12.403-29.137 3.11-41.668l-3.098-3.588-90.398-90.445c-11.354-11.362-29.129-12.403-41.66-3.11l-3.588 3.093-54.316 54.268c-12.503 12.493-12.512 32.751-0.020 45.257 11.358 11.362 29.133 12.403 41.664 3.115l3.593-3.098 31.646-31.637 67.814 67.802zM802.044 714.572c16.154-1.242 28.578-14.272 29.491-30.008l-0.038-4.352-40.772-530.030c-4.932-64.119-56.533-114.197-119.957-117.956l-7.667-0.226h-302.201c-64.312 0-118.199 47.612-126.808 110.558l-0.814 7.625-40.771 530.030c-1.356 17.621 11.83 33.004 29.452 34.36 16.153 1.242 30.425-9.734 33.736-25.144l0.624-4.307 40.771-530.028c2.414-31.386 27.185-56.038 57.972-58.829l5.839-0.265h302.201c31.475 0 57.958 22.81 63.1 53.291l0.713 5.803 40.772 530.028c1.242 16.153 14.272 28.579 30.007 29.493l4.352-0.042zM853.333 714.667c17.673 0 32-14.327 32-32 0-16.201-12.041-29.589-27.657-31.708l-4.343-0.292h-682.667c-17.673 0-32 14.327-32 32 0 16.201 12.038 29.589 27.658 31.708l4.342 0.292h682.667z" />
<glyph unicode="&#xe948;" glyph-name="bin-remove" d="M789.333 714.667c16.201 0 29.589-12.038 31.71-27.658l0.29-4.342v-533.333c0-62.4-48.713-113.425-110.187-117.12l-7.147-0.213h-384c-62.401 0-113.425 48.713-117.119 110.187l-0.214 7.147v533.333c0 17.673 14.327 32 32 32 16.201 0 29.589-12.038 31.708-27.658l0.292-4.342v-533.333c0-27.614 20.986-50.325 47.88-53.056l5.453-0.277h384c27.614 0 50.325 20.988 53.056 47.881l0.277 5.453v533.333c0 17.673 14.327 32 32 32zM597.333 864c50.812 0 92.399-39.473 95.778-89.427l0.222-6.573v-64c0-17.673-14.327-32-32-32-16.201 0-29.589 12.038-31.71 27.658l-0.29 4.342v64c0 16.201-12.041 29.589-27.657 31.708l-4.343 0.292h-170.667c-16.201 0-29.589-12.038-31.708-27.658l-0.292-4.342v-85.333c0-17.673-14.327-32-32-32-16.201 0-29.589 12.038-31.708 27.658l-0.292 4.342v85.333c0 50.81 39.473 92.401 89.427 95.779l6.573 0.221h170.667zM553.374 449.293c12.497 12.497 32.755 12.497 45.252 0 11.362-11.358 12.395-29.137 3.098-41.664l-3.098-3.588-128-128c-12.497-12.497-32.755-12.497-45.254 0-11.361 11.358-12.393 29.137-3.098 41.664l3.098 3.588 128.001 128zM425.373 449.293c11.359 11.362 29.138 12.395 41.665 3.098l3.588-3.098 128-128c12.497-12.497 12.497-32.755 0-45.252-11.358-11.362-29.137-12.395-41.664-3.098l-3.588 3.098-128.001 128c-12.497 12.497-12.497 32.755 0 45.252zM853.333 714.667c17.673 0 32-14.327 32-32 0-16.201-12.041-29.589-27.657-31.708l-4.343-0.292h-682.667c-17.673 0-32 14.327-32 32 0 16.201 12.038 29.589 27.658 31.708l4.342 0.292h682.667z" />
<glyph unicode="&#xe949;" glyph-name="bin-download" d="M789.333 714.667c16.201 0 29.589-12.038 31.71-27.658l0.29-4.342v-533.333c0-62.4-48.713-113.425-110.187-117.12l-7.147-0.213h-384c-62.401 0-113.425 48.713-117.119 110.187l-0.214 7.147v533.333c0 17.673 14.327 32 32 32 16.201 0 29.589-12.038 31.708-27.658l0.292-4.342v-533.333c0-27.614 20.986-50.325 47.88-53.056l5.453-0.277h384c27.614 0 50.325 20.988 53.056 47.881l0.277 5.453v533.333c0 17.673 14.327 32 32 32zM597.333 864c50.812 0 92.399-39.473 95.778-89.427l0.222-6.573v-64c0-17.673-14.327-32-32-32-16.201 0-29.589 12.038-31.71 27.658l-0.29 4.342v64c0 16.201-12.041 29.589-27.657 31.708l-4.343 0.292h-170.667c-16.201 0-29.589-12.038-31.708-27.658l-0.292-4.342v-85.333c0-17.673-14.327-32-32-32-16.201 0-29.589 12.038-31.708 27.658l-0.292 4.342v85.333c0 50.81 39.473 92.401 89.427 95.779l6.573 0.221h170.667zM512 501.333c16.201 0 29.589-12.041 31.71-27.657l0.29-4.343v-213.333c0-17.673-14.327-32-32-32-16.201 0-29.589 12.041-31.71 27.657l-0.29 4.343v213.333c0 17.673 14.327 32 32 32zM404.039 363.959c11.361 11.362 29.138 12.395 41.665 3.098l3.588-3.098 62.707-62.69 62.707 62.69c11.358 11.362 29.137 12.395 41.664 3.098l3.588-3.098c11.362-11.358 12.395-29.137 3.098-41.664l-3.098-3.588-85.333-85.333c-11.358-11.362-29.137-12.395-41.664-3.098l-3.588 3.098-85.335 85.333c-12.497 12.497-12.497 32.755 0 45.252zM853.333 714.667c17.673 0 32-14.327 32-32 0-16.201-12.041-29.589-27.657-31.708l-4.343-0.292h-682.667c-17.673 0-32 14.327-32 32 0 16.201 12.038 29.589 27.658 31.708l4.342 0.292h682.667z" />
<glyph unicode="&#xe94a;" glyph-name="book-legal" d="M887.467 320v473.6c-4.267 38.4-38.4 72.533-76.8 72.533h-563.2c-59.733-4.267-110.933-55.467-110.933-119.467v-558.933c0-64 51.2-115.2 115.2-115.2h221.867v-81.067c4.267-21.333 25.6-34.133 46.933-25.6l72.533 34.133 72.533-34.133c21.333-8.533 46.933 4.267 46.933 29.867v76.8h145.067c17.067 0 29.867 17.067 29.867 29.867 0 17.067-12.8 34.133-34.133 34.133h-8.533v115.2c21.333 12.8 42.667 38.4 42.667 68.267zM204.8 746.667v4.267c0 29.867 21.333 46.933 51.2 46.933h51.2v-490.667h-59.733c-17.067 0-34.133-4.267-46.933-12.8v452.267zM648.533 51.2l-38.4 21.333h-4.267c-8.533 4.267-17.067 0-25.6 0l-38.4-21.333v85.333h106.667v-85.333zM776.533 140.8h-64v34.133c0 17.067-12.8 34.133-34.133 34.133h-170.667c-17.067 0-34.133-12.8-34.133-34.133v-34.133h-221.867c-25.6 4.267-46.933 25.6-46.933 51.2 0 29.867 25.6 51.2 51.2 51.2h520.533v-102.4zM819.2 320v0c0-8.533-4.267-8.533-8.533-8.533h-435.2v486.4h439.467c4.267 0 8.533-4.267 8.533-8.533v-469.333z" />
<glyph unicode="&#xe94b;" glyph-name="brain" d="M904.672 431.099l-8.533 8.533c0 4.267 0 8.533 0 12.8v4.267c55.467 81.067 34.133 192-51.2 247.467-17.067 12.8-34.133 21.333-51.2 25.6l-8.533 4.267c-4.267 0-8.533 4.267-8.533 8.533v4.267c-21.333 81.067-102.4 132.267-183.467 119.467h-8.533c-21.333-4.267-42.667-17.067-64-29.867 0 0-4.267 0-4.267 0v0c0 0-4.267 0-4.267 0h-4.267c-68.267 55.467-170.667 42.667-221.867-25.6-17.067-21.333-25.6-38.4-34.133-59.733v-8.533c0-4.267-4.267-8.533-8.533-8.533h-4.267c-93.867-21.333-157.867-115.2-140.8-213.333 4.267-21.333 8.533-38.4 21.333-55.467l4.267-8.533c4.267-4.267 4.267-8.533 4.267-12.8v-4.267c-55.467-81.067-29.867-196.267 51.2-251.733 17.067-8.533 34.133-17.067 51.2-25.6l8.533-4.267c4.267 0 8.533-4.267 8.533-8.533v-4.267c21.333-85.333 106.667-136.533 192-115.2 21.333 4.267 38.4 12.8 51.2 25.6l12.8 8.533c4.267 4.267 8.533 4.267 12.8 0h4.267c68.267-55.467 166.4-42.667 221.867 25.6 12.8 17.067 21.333 34.133 25.6 51.2l4.267 8.533c0 4.267 4.267 8.533 8.533 8.533h4.267c93.867 21.333 157.867 115.2 140.8 213.333-4.267 25.6-12.8 42.667-21.333 59.733zM456.672 111.099c-8.533-4.267-17.067-8.533-29.867-12.8-51.2-12.8-98.133 17.067-115.2 64l-4.267 12.8c-8.533 25.6-29.867 42.667-55.467 51.2h-8.533c-8.533 4.267-21.333 8.533-29.867 17.067-55.467 34.133-68.267 106.667-34.133 162.133l4.267 4.267c12.8 25.6 12.8 51.2 0 72.533l-8.533 12.8c-4.267 12.8-8.533 25.6-12.8 34.133-12.8 64 29.867 128 93.867 140.8h8.533c25.6 8.533 42.667 29.867 51.2 55.467v8.533c4.267 8.533 8.533 21.333 17.067 29.867 29.867 38.4 89.6 46.933 128 21.333l8.533-8.533c4.267 0 4.267-4.267 8.533-4.267v-644.267c-4.267 0-8.533-4.267-8.533-4.267l-12.8-12.8zM840.672 409.766l8.533-12.8c4.267-8.533 8.533-21.333 12.8-34.133 12.8-64-29.867-123.733-89.6-136.533h-8.533c-25.6-8.533-42.667-25.6-46.933-51.2l-4.267-12.8c-4.267-8.533-8.533-21.333-17.067-29.867-29.867-38.4-89.6-46.933-128-21.333l-12.8 8.533c-4.267 0-4.267 4.267-8.533 4.267v644.267c4.267 0 8.533 4.267 8.533 4.267l4.267 4.267c12.8 12.8 21.333 17.067 38.4 21.333 51.2 12.8 98.133-17.067 115.2-64l4.267-12.8c8.533-25.6 29.867-42.667 55.467-51.2h8.533c8.533-4.267 21.333-8.533 29.867-17.067 55.467-34.133 68.267-106.667 34.133-162.133l-4.267-4.267c-12.8-25.6-12.8-51.2 0-76.8zM725.472 392.699c17.067 0 34.133-12.8 34.133-29.867s-12.8-29.867-25.6-29.867h-4.267c-25.6 0-51.2-21.333-51.2-46.933v-4.267c0-17.067-12.8-34.133-29.867-34.133s-29.867 12.8-29.867 34.133c-12.8 59.733 42.667 110.933 106.667 110.933zM384.139 648.699c17.067 0 29.867-12.8 29.867-29.867 0-64-51.2-115.2-115.2-115.2-17.067-4.267-34.133 12.8-34.133 29.867s12.8 29.867 25.6 29.867h4.267c25.6 0 51.2 21.333 51.2 46.933v4.267c4.267 21.333 21.333 34.133 38.4 34.133zM298.805 392.699c64 0 115.2-51.2 115.2-115.2 0-17.067-12.8-34.133-29.867-34.133s-29.867 12.8-29.867 25.6v4.267c0 25.6-21.333 51.2-46.933 51.2h-4.267c-17.067 0-29.867 12.8-29.867 34.133s8.533 34.133 25.6 34.133zM640.139 648.699c17.067 0 29.867-12.8 29.867-25.6v-4.267c0-25.6 21.333-51.2 46.933-51.2h4.267c17.067 0 34.133-12.8 34.133-29.867s-12.8-29.867-34.133-29.867c-64 0-115.2 51.2-115.2 115.2 0 12.8 17.067 25.6 34.133 25.6z" />
<glyph unicode="&#xe94c;" glyph-name="brakes" d="M371.2 541.867c64 64 170.667 64 234.667 0s64-170.667 0-234.667-170.667-64-234.667 0c-64 64-64 170.667 0 234.667zM554.667 503.467c-38.4 34.133-102.4 34.133-140.8-4.267s-38.4-106.667 0-145.067c38.4-38.4 106.667-38.4 145.067 0s38.4 98.133 4.267 140.8l-8.533 8.533zM512 908.8c-17.067 0-34.133-12.8-34.133-34.133v-55.467h-4.267c-213.333-8.533-384-179.2-384-392.533 0-217.6 174.933-392.533 392.533-392.533 213.333 0 388.267 170.667 392.533 384h64c17.067 0 34.133 12.8 34.133 34.133-4.267 251.733-209.067 456.533-460.8 456.533zM819.2 413.867c-4.267-174.933-149.333-320-328.533-320-183.467 0-328.533 149.333-328.533 328.533s145.067 324.267 320 328.533v-46.933c0-17.067 12.8-34.133 34.133-34.133 123.733 0 221.867-98.133 221.867-221.867 0-17.067 12.8-34.133 34.133-34.133h46.933zM797.867 482.133v8.533c-17.067 128-119.467 226.133-243.2 243.2h-8.533v106.667c187.733-17.067 337.067-162.133 358.4-345.6v-12.8h-106.667z" />
<glyph unicode="&#xe94d;" glyph-name="brick-wall" d="M810.667 864c62.4 0 113.425-48.713 117.12-110.186l0.213-7.148v-256c0-17.673-14.327-32-32-32-16.201 0-29.589 12.041-31.71 27.657l-0.29 4.343v256c0 27.614-20.988 50.327-47.881 53.058l-5.453 0.275h-597.333c-27.614 0-50.327-20.986-53.058-47.88l-0.275-5.453v-597.333c0-27.614 20.986-50.325 47.88-53.056l5.453-0.277h256c17.673 0 32-14.327 32-32 0-16.201-12.041-29.589-27.657-31.71l-4.343-0.29h-256c-62.401 0-113.425 48.713-117.119 110.187l-0.214 7.147v597.333c0 62.401 48.713 113.425 110.186 117.119l7.148 0.214h597.333zM896 672c17.673 0 32-14.327 32-32 0-16.201-12.041-29.589-27.657-31.708l-4.343-0.292h-768c-17.673 0-32 14.327-32 32 0 16.201 12.038 29.589 27.658 31.708l4.342 0.292h768zM512 864c16.201 0 29.589-12.038 31.71-27.658l0.29-4.342v-192c0-17.673-14.327-32-32-32-16.201 0-29.589 12.038-31.71 27.658l-0.29 4.342v192c0 17.673 14.327 32 32 32zM341.333 672c16.201 0 29.589-12.038 31.708-27.658l0.292-4.342v-192c0-17.673-14.327-32-32-32-16.201 0-29.589 12.041-31.708 27.657l-0.292 4.343v192c0 17.673 14.327 32 32 32zM682.667 672c16.201 0 29.589-12.038 31.71-27.658l0.29-4.342v-106.667c0-17.673-14.327-32-32-32-16.201 0-29.589 12.041-31.71 27.657l-0.29 4.343v106.667c0 17.673 14.327 32 32 32zM426.667 288c17.673 0 32-14.327 32-32 0-16.201-12.041-29.589-27.657-31.71l-4.343-0.29h-298.667c-17.673 0-32 14.327-32 32 0 16.201 12.038 29.589 27.658 31.71l4.342 0.29h298.667zM341.333 288c16.201 0 29.589-12.041 31.708-27.657l0.292-4.343v-192c0-17.673-14.327-32-32-32-16.201 0-29.589 12.041-31.708 27.657l-0.292 4.343v192c0 17.673 14.327 32 32 32zM512 480c17.673 0 32-14.327 32-32 0-16.201-12.041-29.589-27.657-31.71l-4.343-0.29h-384c-17.673 0-32 14.327-32 32 0 16.201 12.038 29.589 27.658 31.71l4.342 0.29h384zM746.667 437.333c-123.712 0-224-100.288-224-224s100.288-224 224-224c123.712 0 224 100.288 224 224s-100.288 224-224 224zM746.667 373.333c88.367 0 160-71.633 160-160s-71.633-160-160-160c-88.367 0-160 71.633-160 160s71.633 160 160 160zM788.032 267.955c12.493 12.501 32.755 12.506 45.257 0.013 11.362-11.358 12.399-29.137 3.11-41.668l-3.098-3.588-79.957-80c-11.358-11.362-29.133-12.399-41.664-3.11l-3.588 3.093-48.043 48c-12.501 12.493-12.51 32.755-0.021 45.257 11.358 11.366 29.133 12.407 41.664 3.115l3.593-3.093 25.382-25.37 57.365 57.353z" />
<glyph unicode="&#xe94e;" glyph-name="browser-shield-checkmark" d="M800 416h-149.333c-70.694 0-128-57.306-128-128v-59.661c0-104.546 73.792-194.56 176.307-215.061l9.242-1.498c15.322-1.847 29.577-1.284 43.477 1.498l9.728 2.185c98.086 24.619 166.579 112.235 166.579 212.877v59.661c0 70.694-57.306 128-128 128zM800 352c35.345 0 64-28.655 64-64v-59.661c0-71.27-48.512-133.325-117.406-150.622l-8.209-1.843c-6.528-1.297-13.995-1.591-21.363-0.717l-6.741 1.101c-71.356 14.298-123.614 78.042-123.614 152.081v59.661c0 35.345 28.655 64 64 64h149.333zM756.041 278.626c12.497 12.497 32.755 12.497 45.252 0s12.497-32.755 0-45.252l-64-64c-12.497-12.497-32.755-12.497-45.252 0l-42.667 42.667c-12.497 12.497-12.497 32.755 0 45.252s32.755 12.497 45.252 0l19.998-20.023 41.417 41.357zM896 608c17.673 0 32-14.327 32-32s-14.327-32-32-32h-768c-17.673 0-32 14.327-32 32s14.327 32 32 32h768zM471.552 736.128l4.442-0.612c5.854-1.239 11.422-4.131 15.966-8.675 12.71-12.71 12.71-32.972 0.213-45.468-12.71-12.71-32.969-12.71-45.466-0.213-12.71 12.71-12.71 32.972-0.213 45.468 5.892 5.894 13.175 8.992 20.608 9.508l4.45-0.008zM364.885 736.128l4.442-0.612c5.851-1.239 11.422-4.131 15.966-8.675 12.71-12.71 12.71-32.972 0.213-45.468-12.71-12.71-32.972-12.71-45.468-0.213-12.71 12.71-12.71 32.972-0.213 45.468 5.894 5.894 13.178 8.992 20.609 9.508l4.451-0.008zM258.219 736.128l4.442-0.612c5.851-1.239 11.422-4.131 15.966-8.675 12.71-12.71 12.71-32.972 0.213-45.468-12.71-12.71-32.972-12.71-45.468-0.213-12.71 12.71-12.71 32.972-0.213 45.468 5.894 5.894 13.178 8.992 20.609 9.508l4.451-0.008zM768 864c88.367 0 160-71.634 160-160v-213.333c0-17.673-14.327-32-32-32s-32 14.327-32 32v213.333c0 53.019-42.982 96-96 96h-512c-53.019 0-96-42.981-96-96v-512c0-53.018 42.981-96 96-96h170.667c17.673 0 32-14.327 32-32s-14.327-32-32-32h-170.667c-88.366 0-160 71.633-160 160v512c0 88.366 71.634 160 160 160h512z" />
<glyph unicode="&#xe94f;" glyph-name="browser-window-show-sidebar" d="M682.667 866.133h-341.333c-136.533 0-247.467-110.933-247.467-247.467v-341.333c0-136.533 110.933-247.467 247.467-247.467h341.333c136.533 0 247.467 110.933 247.467 247.467v341.333c0 136.533-110.933 247.467-247.467 247.467zM162.133 618.667c0 98.133 81.067 179.2 179.2 179.2h341.333c98.133 0 179.2-81.067 179.2-179.2v-8.533h-699.733v8.533zM563.2 371.2h-401.067v170.667h405.333v-170.667zM162.133 277.333v34.133h405.333v-213.333h-226.133c-98.133 0-179.2 81.067-179.2 179.2zM861.867 277.333c0-98.133-81.067-179.2-179.2-179.2h-51.2v443.733h234.667v-264.533z" />
<glyph unicode="&#xe950;" glyph-name="builder-checkmark" d="M789.333 328.533c-98.133 0-179.2-81.067-179.2-179.2s81.067-179.2 179.2-179.2 179.2 81.067 179.2 179.2-81.067 179.2-179.2 179.2zM789.333 268.8c64 0 119.467-51.2 119.467-119.467s-51.2-119.467-119.467-119.467-119.467 51.2-119.467 119.467 55.467 119.467 119.467 119.467zM814.933 196.267c12.8 12.8 34.133 12.8 46.933 0s12.8-29.867 4.267-42.667l-68.267-68.267c-12.8-12.8-29.867-12.8-42.667-4.267l-42.667 42.667c-12.8 12.8-12.8 34.133 0 46.933s29.867 12.8 42.667 4.267l17.067-17.067 42.667 38.4zM763.733 644.267c0 4.267 0 8.533 0 17.067v34.133c0 68.267-25.6 132.267-72.533 179.2-29.867 29.867-64 51.2-102.4 59.733 0 0 0 0 0 0-4.267 0-4.267 0-8.533 0-17.067 4.267-38.4 8.533-55.467 8.533h-12.8c-25.6 0-51.2-4.267-76.8-12.8-38.4-4.267-72.533-25.6-102.4-55.467-46.933-46.933-72.533-110.933-72.533-179.2v-34.133c0-4.267 0-8.533 0-12.8-8.533-8.533-12.8-17.067-12.8-29.867 0-17.067 12.8-34.133 34.133-34.133h34.133v-64c-4.267-55.467 25.6-110.933 68.267-145.067l-17.067-68.267c-8.533 0-17.067 0-21.333 0l-119.467-25.6-8.533-4.267c-72.533-17.067-119.467-81.067-119.467-153.6v-21.333c0-17.067 17.067-29.867 29.867-29.867 17.067 0 34.133 12.8 34.133 34.133v29.867c4.267 42.667 34.133 76.8 76.8 85.333l119.467 25.6c0 0 0 0 4.267 0s8.533-4.267 8.533-4.267c55.467-34.133 123.733-46.933 187.733-34.133 17.067 4.267 29.867 21.333 25.6 38.4s-21.333 29.867-38.4 25.6c-42.667-8.533-81.067-4.267-119.467 12.8l17.067 59.733c21.333-8.533 42.667-12.8 68.267-12.8s46.933 4.267 68.267 12.8l8.533-29.867v-4.267c4.267-12.8 21.333-21.333 38.4-17.067s29.867 21.333 21.333 38.4l-8.533 42.667c46.933 38.4 76.8 93.867 76.8 157.867v51.2h38.4c17.067 0 29.867 17.067 29.867 29.867-8.533 17.067-12.8 25.6-21.333 29.867zM477.867 883.2c8.533 0 21.333 4.267 34.133 4.267h8.533c8.533 0 12.8 0 21.333-4.267v-38.4c0-17.067-17.067-25.6-29.867-25.6-17.067 0-34.133 12.8-34.133 34.133v29.867zM648.533 533.333v-8.533c-4.267-72.533-64-132.267-136.533-132.267-25.6 0-51.2 8.533-72.533 21.333-38.4 25.6-68.267 68.267-68.267 119.467v51.2h277.333v-51.2zM332.8 652.8c-4.267 0-8.533 4.267-8.533 8.533v34.133c0 51.2 17.067 98.133 55.467 136.533 12.8 12.8 25.6 21.333 38.4 29.867v-17.067c4.267-51.2 42.667-89.6 93.867-89.6s93.867 42.667 93.867 93.867v8.533c12.8-8.533 25.6-17.067 38.4-29.867 34.133-34.133 55.467-85.333 55.467-132.267v-34.133c0-4.267-4.267-8.533-8.533-8.533h-358.4z" />
</font>
</defs>
</svg>
